<?xml version="1.0" standalone="no"?>
<!DOCTYPE svg PUBLIC "-//W3C//DTD SVG 1.1//EN" "http://www.w3.org/Graphics/SVG/1.1/DTD/svg11.dtd" >
<svg xmlns="http://www.w3.org/2000/svg">
<metadata>Generated by IcoMoon</metadata>
<defs>
<font id="alien-icon" horiz-adv-x="1024">
<font-face units-per-em="1024" ascent="960" descent="-64" />
<missing-glyph horiz-adv-x="1024" />
<glyph unicode="&#x20;" horiz-adv-x="0" d="" />
<glyph unicode="&#xe900;" glyph-name="accordion1" horiz-adv-x="1408" d="M219.232-30.048c6.016-20.128 24.992-34.176 46.080-34.176 4.416 0 8.832 0.64 13.088 1.856l262.88 75.136c12.448 3.552 22.72 11.776 28.928 23.136 6.176 11.328 7.552 24.416 3.84 36.736l-217.376 724.928c-7.296 24.352-34.624 39.328-59.168 32.352l-262.88-75.104c-12.448-3.552-22.72-11.744-28.928-23.136-6.208-11.328-7.584-24.416-3.872-36.768l217.408-724.96zM33.792 716.352c2.048 3.776 5.472 6.528 9.6 7.712l262.88 75.104c1.408 0.384 2.848 0.576 4.32 0.576 7.072 0 13.408-4.672 15.424-11.36l217.408-724.96c1.248-4.128 0.768-8.448-1.28-12.224-2.080-3.776-5.504-6.528-9.632-7.712l-262.88-75.136c-8.192-2.368-17.312 2.752-19.712 10.784l-217.44 724.96c-1.216 4.128-0.768 8.48 1.312 12.256zM1374.272 751.296l-256.448 78.272c-24.544 7.456-52.256-7.328-59.84-31.68l-223.584-721.76c-3.808-12.256-2.56-25.28 3.456-36.672 6.016-11.328 16.096-19.68 28.352-23.424l256.48-78.304c4.544-1.376 9.248-2.080 13.984-2.080 21.152 0 39.552 13.6 45.824 33.792l223.584 721.76c3.808 12.256 2.56 25.28-3.456 36.672-6.016 11.36-16.096 19.648-28.352 23.424zM1375.52 700.672l-223.584-721.76c-2.592-8.256-11.712-13.056-19.936-10.56l-256.48 78.304c-4.064 1.216-7.392 4-9.408 7.808-2.016 3.776-2.432 8.128-1.184 12.192l223.584 721.76c2.048 6.624 8.352 11.232 15.328 11.232 1.536 0 3.104-0.224 4.608-0.672l256.48-78.272c4.064-1.216 7.392-4 9.408-7.776 2.048-3.872 2.432-8.224 1.184-12.256zM688 960c-8.832 0-16-7.168-16-16v-928c0-8.832 7.168-16 16-16s16 7.168 16 16v928c0 8.832-7.168 16-16 16z" />
<glyph unicode="&#xe901;" glyph-name="accordion2" d="M880 928h-736c-8.832 0-16 7.168-16 16s7.168 16 16 16h736c8.832 0 16-7.168 16-16s-7.168-16-16-16zM976 118.208h-928c-26.464 0-48 21.536-48 48v563.584c0 26.464 21.536 48 48 48h928c26.464 0 48-21.536 48-48v-563.584c0-26.464-21.536-48-48-48zM48 745.792c-8.8 0-16-7.168-16-16v-563.584c0-8.832 7.2-16 16-16h928c8.8 0 16 7.168 16 16v563.584c0 8.832-7.2 16-16 16h-928zM880-64h-736c-8.832 0-16 7.168-16 16s7.168 16 16 16h736c8.832 0 16-7.168 16-16s-7.168-16-16-16z" />
<glyph unicode="&#xe902;" glyph-name="adjustments" horiz-adv-x="1056" d="M992 960h-928c-26.304 0-64-37.696-64-64v-896c0-26.304 37.696-64 64-64h928c26.304 0 64 37.696 64 64v896c0 26.304-37.696 64-64 64zM1024 0c-0.192-9.088-22.912-31.808-32-32h-928c-9.088 0.192-31.808 22.912-32 32v896c0.192 9.088 22.912 31.808 32 32h928c9.088-0.192 31.808-22.912 32-32v-896zM528 784c-35.296 0-64-28.704-64-64s28.704-64 64-64 64 28.704 64 64-28.704 64-64 64zM528 688c-17.632 0-32 14.368-32 32s14.368 32 32 32 32-14.368 32-32-14.368-32-32-32zM784 272c-35.296 0-64-28.704-64-64s28.704-64 64-64 64 28.704 64 64-28.704 64-64 64zM784 176c-17.632 0-32 14.368-32 32s14.368 32 32 32 32-14.368 32-32-14.368-32-32-32zM272 432c-35.296 0-64-28.704-64-64s28.704-64 64-64 64 28.704 64 64-28.704 64-64 64zM272 336c-17.632 0-32 14.368-32 32s14.368 32 32 32 32-14.368 32-32-14.368-32-32-32zM272 480c8.832 0 16 7.168 16 16v288c0 8.832-7.168 16-16 16s-16-7.168-16-16v-288c0-8.832 7.168-16 16-16zM272 256c-8.832 0-16-7.168-16-16v-96c0-8.832 7.168-16 16-16s16 7.168 16 16v96c0 8.832-7.168 16-16 16zM528 608c-8.832 0-16-7.168-16-16v-448c0-8.832 7.168-16 16-16s16 7.168 16 16v448c0 8.832-7.168 16-16 16zM784 320c8.832 0 16 7.168 16 16v448c0 8.832-7.168 16-16 16s-16-7.168-16-16v-448c0-8.832 7.168-16 16-16z" />
<glyph unicode="&#xe903;" glyph-name="alarmclock" horiz-adv-x="960" d="M480 896c-247.040 0-448-200.96-448-448s200.96-448 448-448 448 200.96 448 448-200.96 448-448 448zM480 32c-229.376 0-416 186.624-416 416s186.624 416 416 416 416-186.624 416-416-186.624-416-416-416zM240 960c-132.352 0-240-107.648-240-240v-33.984c0-8.832 7.168-16 16-16s16 7.136 16 16v33.984c0 114.688 93.312 208 208 208h28c8.832 0 16 7.168 16 16s-7.168 16-16 16h-28zM716 960h-28c-8.832 0-16-7.168-16-16s7.168-16 16-16h28c114.688 0 208-93.312 208-208v-33.984c0-8.832 7.168-16 16-16s16 7.168 16 16v33.984c0 132.352-107.648 240-240 240zM480 438.624v223.168c0 8.832-7.168 16-16 16s-16-7.168-16-16v-229.792c0-4.256 1.696-8.32 4.672-11.328l157.248-157.248c3.136-3.136 7.232-4.672 11.328-4.672s8.192 1.568 11.328 4.672c6.24 6.24 6.24 16.384 0 22.624l-152.576 152.576zM60.8-57.6l96 128c5.28 7.072 3.84 17.088-3.232 22.4-7.040 5.248-17.056 3.84-22.4-3.232l-96-128c-5.28-7.072-3.84-17.088 3.232-22.4 2.88-2.144 6.272-3.168 9.6-3.168 4.832 0 9.664 2.208 12.8 6.4zM828.8 89.6c-5.344 7.104-15.328 8.48-22.4 3.232-7.072-5.312-8.512-15.328-3.232-22.4l96-128c3.168-4.192 7.968-6.4 12.8-6.4 3.328 0 6.72 1.024 9.6 3.2 7.072 5.312 8.512 15.328 3.232 22.4l-96 127.968z" />
<glyph unicode="&#xe904;" glyph-name="alien" horiz-adv-x="896" d="M504.608 224.48c11.744-1.408 23.264-2.080 34.528-2.080 71.584 0 136.64 28.192 183.104 79.392 54.592 60.096 79.552 145.44 70.176 242.304-1.536 14.72-12.352 26.24-28.096 28.224-86.176 10.336-163.808-18.048-217.632-77.344-54.592-60.096-79.552-145.44-70.176-242.272 1.472-14.688 12.288-26.24 28.096-28.224zM570.336 473.472c40.352 44.448 96.96 68.896 159.424 68.896 10.016 0 20.256-0.608 30.944-3.392 8.288-85.76-13.792-162.336-62.208-215.712-40.352-44.416-96.96-68.896-159.392-68.896-10.016 0-20.256 0.608-30.976 3.392-8.288 85.76 13.792 162.336 62.208 215.712zM354.72-25.44c24.928-24.864 58.048-38.56 93.28-38.56s68.352 13.696 93.28 38.56l223.488 222.944c85.44 85.248 132.064 198.624 131.232 319.168-0.832 120.576-49.056 233.312-135.744 317.408-83.68 81.216-194.592 125.92-312.256 125.92s-228.576-44.704-312.224-125.92c-86.72-84.096-134.944-196.832-135.776-317.408s45.76-233.92 131.232-319.168l223.488-222.944zM158.048 811.136c77.664 75.36 180.64 116.864 289.952 116.864s212.288-41.504 289.952-116.864c80.512-78.112 125.248-182.752 126.016-294.656s-42.496-217.152-121.824-296.288l-223.488-222.944c-37.76-37.664-103.584-37.664-141.344 0l-223.488 222.912c-79.328 79.136-122.592 184.384-121.824 296.288s45.536 216.576 126.048 294.688zM349.824 222.4c11.264 0 22.784 0.672 36.352 2.304 13.952 1.792 24.736 13.312 26.464 30.016 9.184 94.848-15.808 180.192-70.368 240.288-46.464 51.2-111.488 79.392-183.104 79.392-11.264 0-22.784-0.672-36.288-2.304-13.984-1.76-24.8-13.248-26.528-29.984-9.184-94.848 15.808-180.192 70.368-240.32 46.464-51.2 111.488-79.392 183.104-79.392zM128.48 540.512c10.432 1.248 20.672 1.856 30.688 1.856 62.464 0 119.072-24.48 159.424-68.896 48.416-53.344 70.528-129.952 61.952-217.216-75.36-9.088-143.296 15.488-190.112 67.040-48.448 53.344-70.56 129.952-61.952 217.216z" />
<glyph unicode="&#xe905;" glyph-name="alien-gun" horiz-adv-x="1248" d="M765.632 576c-61.76 0-112-50.24-112-112s50.24-112 112-112 112 50.24 112 112-50.24 112-112 112zM765.632 384c-44.096 0-80 35.904-80 80s35.904 80 80 80 80-35.904 80-80-35.872-80-80-80zM1152.288 544h-1.6c-39.584 106.688-155.968 190.016-302.656 215.584v87.968c0 8.832-7.168 16-16 16s-16-7.168-16-16v-83.456c-20.544 2.336-41.408 3.904-62.784 3.904-0.416 0-0.832-0.032-1.248-0.032v176.032c0 8.832-7.168 16-16 16s-16-7.168-16-16v-177.024c-21.76-1.312-43.104-3.936-64-7.712v82.176c0 8.832-7.168 16-16 16s-16-7.168-16-16v-89.024c-107.424-26.336-197.792-84.544-245.824-161.888-26.24 25.472-60.224 43.488-99.392 49.088-23.36 3.264-38.784-12.992-38.784-36.928v-122.688h-81.984c-7.424 36.48-39.744 64-78.368 64-44.096 0-80-35.904-80-80s35.872-80 80-80c38.624 0 70.944 27.52 78.368 64h81.984v-122.688c0-25.792 15.904-37.312 31.616-37.312 0.768 0 4.704 0.288 5.44 0.384 39.776 5.696 74.24 23.872 100.832 49.536 66.304-107.168 213.76-177.92 375.36-177.92 9.504 0 18.816 0.576 28.16 1.056 0.128-1.92 0.512-3.904 1.376-5.76l71.648-154.848c18.080-40.16 59.648-64.384 103.232-64.384 14.368 0 28.96 2.656 42.976 8.192 28.416 11.296 50.176 32.544 61.216 59.808 10.496 25.888 9.92 54.144-1.824 80.224l-65.504 130.848c-0.384 0.768-1.056 1.28-1.536 1.952 63.712 33.76 113.856 70.912 143.296 134.912 0.032 0 0.064 0 0.064 0h15.936c52.992 0 96.064 43.072 96.064 96s-43.072 96-96.064 96zM79.648 416c-26.464 0-48 21.536-48 48s21.536 48 48 48 48-21.536 48-48-21.536-48-48-48zM254.496 313.984l17.152 6.016c0 0 0.48-0.352 0.864-0.672l-18.016-5.344zM272.608 320.064c-0.32 1.056-0.608 2.752-0.608 5.248v277.376c0 3.52 0.928 5.248 2.24 5.248 72.864-10.432 125.76-70.944 125.76-143.936 0-72.8-53.568-133.344-127.392-143.936zM1031.104 70.592c7.872-17.44 8.224-36.8 1.088-54.496-7.744-19.104-23.136-34.048-43.36-42.080-40.864-16.16-88.096 1.536-105.28 39.712l-69.376 149.984c54.56 5.984 105.536 19.808 150.976 39.968 0.256-0.928 0.32-1.92 0.768-2.816l65.184-130.272zM753.248 192c-155.328 0-295.776 68.736-353.248 171.68 19.968 28.64 32 62.976 32 100.32 0 37.504-11.936 71.936-31.84 100.64 57.6 102.784 197.92 171.36 353.088 171.36 209.76 0 380.416-122.016 380.416-272s-170.688-272-380.416-272zM1152.288 384h-1.6c9.472 25.536 14.976 52.288 14.976 80 0 16.096-2.208 31.776-5.504 47.2 31.584-3.936 56.224-30.592 56.224-63.2-0.032-35.296-28.768-64-64.096-64z" />
<glyph unicode="&#xe906;" glyph-name="align-left" d="M896 416h-768c-17.696 0-32 14.336-32 32s14.304 32 32 32h768c17.696 0 32-14.336 32-32s-14.304-32-32-32zM768 160h-640c-17.696 0-32 14.336-32 32s14.304 32 32 32h640c17.696 0 32-14.336 32-32s-14.304-32-32-32zM544 672h-416c-17.696 0-32 14.336-32 32s14.304 32 32 32h416c17.696 0 32-14.336 32-32s-14.304-32-32-32z" />
<glyph unicode="&#xe907;" glyph-name="anchor" horiz-adv-x="1120" d="M25.984 355.328l70.016 70.048v-25.376c0-242.848 221.152-464 464-464s464 221.152 464 464v24.704l70.688-70.688c3.136-3.136 7.232-4.672 11.328-4.672s8.192 1.568 11.328 4.672c6.24 6.24 6.24 16.384 0 22.624l-96.576 96.576c-2.944 4-7.424 6.784-12.768 6.784-1.44 0-2.688-0.448-4.032-0.8-2.944-0.608-5.792-1.728-7.968-3.872l-97.344-97.344c-6.24-6.24-6.24-16.384 0-22.624s16.384-6.24 22.624 0l70.72 70.688v-26.048c0-220.736-196.32-421.664-416-431.104v607.104h272c8.832 0 16 7.168 16 16s-7.168 16-16 16h-272v129.632c54.144 7.84 96 54.112 96 110.368 0 61.76-50.24 112-112 112s-112-50.24-112-112c0-56.256 41.856-102.528 96-110.368v-129.632h-272c-8.832 0-16-7.168-16-16s7.168-16 16-16h272v-607.104c-219.68 9.44-416 210.368-416 431.104v25.376l71.36-71.36c3.136-3.136 7.232-4.672 11.328-4.672s8.192 1.568 11.328 4.672c6.24 6.24 6.24 16.384 0 22.624l-98.656 98.624c-2.912 2.944-6.944 4.736-11.36 4.736s-8.448-1.792-11.328-4.704l-97.312-97.312c-6.24-6.24-6.24-16.384 0-22.624s16.384-6.272 22.624-0.032zM560 928c44.096 0 80-35.872 80-80s-35.904-80-80-80-80 35.872-80 80 35.904 80 80 80z" />
<glyph unicode="&#xe908;" glyph-name="aperture" d="M512-64c137.888 0 262.976 55.040 355.136 144 1.888 0.992 3.2 2.464 4.576 4.16 93.92 92.896 152.288 221.632 152.288 363.84 0 235.072-159.456 433.152-375.744 493.024-2.112 1.12-4.384 1.664-6.816 1.76-41.44 10.848-84.672 17.216-129.44 17.216-132.544 0-253.088-51.072-344.128-133.984-2.56-1.248-4.608-3.264-6.24-5.696-99.232-93.44-161.632-225.6-161.632-372.32 0-282.304 229.696-512 512-512zM512-32c-44 0-86.464 6.464-126.976 17.6l-56.672 276.992 499.872-174.784c-84.544-74.336-195.040-119.808-316.224-119.808zM320.896 299.136l-46.688 228.288 202.464 166.752 212.512-70.848 53.952-253.312-173.6-157.792-248.64 86.912zM992 448c0-130.528-52.512-248.896-137.344-335.52l-250.752 87.68 378.4 344c6.336-31.072 9.696-63.232 9.696-96.16zM973.312 579.232l-202.752-184.32-108.352 508.672c150.208-49.664 267.552-171.488 311.104-324.352zM512 928c39.84 0 78.368-5.408 115.392-14.624l54.048-253.792-474.976 158.336c83.072 68.704 189.568 110.080 305.536 110.080zM32 448c0 135.52 56.704 257.888 147.328 345.248l261.536-87.168-402.624-331.584c-3.712 24.032-6.24 48.448-6.24 73.504zM45.472 339.040l200.768 165.344 103.84-507.648c-151.584 54.592-267.84 183.072-305.056 342.048 0.128 0.096 0.32 0.128 0.448 0.256z" />
<glyph unicode="&#xe909;" glyph-name="aperture2" d="M512-64c282.304 0 512 229.696 512 512s-229.696 512-512 512-512-229.696-512-512 229.696-512 512-512zM246.72 847.68c-28.064-75.648-42.016-153.888-39.872-233.184 1.6-57.536 11.424-115.168 29.344-171.36 13.92-43.52 32.096-84.96 54.112-123.136 3.52-6.144 7.2-12.192 10.912-18.176 3.040-4.864 8.256-7.552 13.6-7.552 2.912 0 5.824 0.768 8.448 2.4 7.488 4.672 9.824 14.528 5.152 22.016-3.52 5.696-7.008 11.456-10.4 17.312-20.832 36.192-38.112 75.488-51.328 116.832-16.992 53.344-26.336 108.032-27.84 162.528-2.272 83.456 13.312 165.856 47.136 246.848 1.568 3.84 3.232 7.616 4.896 11.392 66.24 34.56 141.344 54.4 221.12 54.4 76.576 0 148.736-18.464 213.024-50.496-79.36-13.536-153.888-40.544-221.408-82.016-48.992-30.048-94.016-67.424-133.728-111.072-30.784-33.76-57.568-70.272-79.584-108.416-3.552-6.144-7.008-12.352-10.304-18.592-4.16-7.808-1.184-17.504 6.624-21.632 2.368-1.28 4.96-1.888 7.488-1.888 5.728 0 11.264 3.104 14.112 8.512 3.136 5.888 6.368 11.744 9.76 17.6 20.864 36.192 46.304 70.784 75.52 102.88 37.728 41.408 80.416 76.832 126.848 105.376 71.2 43.68 150.336 71.392 235.328 82.304 4.672 0.64 9.376 1.152 14.080 1.696 125.344-80.224 210.816-216.832 220.704-373.952-51.392 61.92-112.032 112.96-181.696 150.688-50.624 27.424-105.504 47.712-163.104 60.288-51.84 11.36-104.064 16.192-154.976 14.336-8.8-0.352-15.712-7.744-15.392-16.608 0.32-8.64 7.392-15.392 16-15.392 0.192 0 0.384 0 0.608 0 47.872 1.792 97.728-2.816 146.976-13.6 54.624-11.936 106.688-31.2 154.656-57.152 73.44-39.808 136.992-94.496 190.656-164.832 2.304-2.976 4.512-6.016 6.752-9.024-6.88-157.888-89.856-296.256-213.664-378.688 28.064 75.648 42.016 153.888 39.872 233.184-1.6 57.536-11.424 115.168-29.344 171.36-13.92 43.52-32.096 84.96-54.112 123.136-3.52 6.144-7.2 12.192-10.912 18.176-4.672 7.52-14.56 9.76-22.016 5.152-7.488-4.672-9.824-14.528-5.152-22.016 3.52-5.696 7.008-11.456 10.4-17.312 20.832-36.192 38.112-75.488 51.328-116.832 16.992-53.344 26.336-108.032 27.84-162.528 2.272-83.424-13.312-165.856-47.136-246.848-1.6-3.808-3.232-7.616-4.896-11.392-66.272-34.56-141.376-54.4-221.152-54.4-76.576 0-148.736 18.464-213.024 50.496 79.328 13.536 153.888 40.544 221.408 82.016 49.056 30.112 94.048 67.488 133.728 111.072 30.816 33.792 57.6 70.272 79.584 108.448 3.552 6.144 7.008 12.352 10.304 18.592 4.16 7.808 1.184 17.504-6.624 21.632-7.744 4.16-17.504 1.152-21.632-6.624-3.136-5.888-6.368-11.744-9.76-17.6-20.864-36.192-46.304-70.784-75.552-102.88-37.632-41.376-80.32-76.8-126.816-105.376-71.2-43.68-150.336-71.392-235.328-82.304-4.672-0.64-9.376-1.152-14.080-1.696-125.344 80.224-210.816 216.832-220.704 373.952 51.392-61.92 112.032-112.96 181.696-150.688 50.624-27.424 105.504-47.712 163.104-60.288 44.64-9.824 89.6-14.752 133.696-14.752 7.136 0 14.176 0.128 21.28 0.384 8.8 0.352 15.712 7.744 15.392 16.608-0.32 8.8-6.56 16.16-16.608 15.392-47.808-1.824-97.728 2.816-146.976 13.6-54.624 11.936-106.688 31.2-154.656 57.152-73.44 39.808-136.992 94.496-190.656 164.832-2.304 2.976-4.512 6.016-6.752 9.024 6.912 157.888 89.92 296.256 213.696 378.688z" />
<glyph unicode="&#xe90a;" glyph-name="attachments" d="M607.552 432.928c5.248-0.576 10.464-0.832 15.68-0.832 38.912 0 76.224 15.392 104.256 43.424l236.96 236.96c27.712 27.712 43.168 64.448 43.392 103.392 0.288 39.040-14.688 75.648-42.112 103.104-27.2 27.2-63.36 42.144-102.016 42.144-0.352 0-0.672 0-1.056 0-38.944-0.256-75.648-15.68-103.36-43.392l-236.96-236.96c-35.040-35.040-50.208-84.768-40.608-133.024 1.856-9.28 11.072-15.328 20.128-13.408 9.28 1.856 15.296 10.848 13.44 20.096-7.392 37.024 4.288 75.232 31.232 102.144l236.96 236.96c21.312 21.344 49.536 33.184 79.424 33.376 31.2 0 57.76-11.2 78.656-32.096s32.32-48.864 32.128-78.656c-0.224-29.92-12.064-58.112-33.408-79.424l-236.96-236.96c-24.448-24.416-58.016-36.256-92.128-32.768-9.12 1.056-17.824-5.792-18.816-15.2-1.024-9.472 5.792-17.888 15.168-18.88zM484.48 215.264c36.736 36.736 51.456 88.608 39.328 138.688-2.208 9.184-11.232 14.912-20.672 12.608-9.184-2.208-14.816-11.456-12.608-20.64 9.312-38.432-2.016-78.208-30.272-106.496l-236.96-236.96c-21.312-21.344-49.536-33.184-79.424-33.376-30.688-0.16-57.76 11.168-78.656 32.096-20.896 20.896-32.32 48.832-32.096 78.656 0.192 29.92 12.064 58.112 33.376 79.456l236.96 236.96c24.672 24.672 58.304 36.608 92.992 32.672 9.216-0.704 17.888 5.664 18.944 15.072 1.056 9.376-5.664 17.856-15.072 18.944-44.928 5.056-88.96-10.368-121.056-42.464l-236.96-236.96c-27.712-27.712-43.136-64.448-43.392-103.392-0.288-39.040 14.688-75.648 42.112-103.104 27.2-27.2 63.36-42.144 102.016-42.144 0.352 0 0.672 0 1.056 0 38.944 0.256 75.648 15.68 103.36 43.392l237.024 236.992zM727.488 676.096c-6.688 6.688-17.504 6.688-24.192 0l-432-432c-6.688-6.656-6.688-17.504 0-24.192 3.328-3.328 7.712-5.024 12.096-5.024s8.736 1.664 12.096 5.024l432 432c6.688 6.688 6.688 17.504 0 24.192z" />
<glyph unicode="&#xe90b;" glyph-name="badge1" horiz-adv-x="736" d="M368 808.736c-114.688 0-208-93.312-208-208s93.312-208 208-208 208 93.312 208 208-93.312 208-208 208zM368 424.736c-97.024 0-176 78.944-176 176s78.976 176 176 176 176-78.944 176-176-78.976-176-176-176zM681.984 803.936c-13.408 19.744-35.872 32.256-65.44 36.64-8.864 59.584-51.968 89.504-111.776 75.2-31.328 52.384-85.28 63.488-136.736 27.232-51.52 36.256-105.408 25.152-136.768-27.264-59.936 14.304-102.944-15.616-111.808-75.2-29.536-4.384-52.032-16.896-65.44-36.608-13.472-19.904-16.8-45.696-9.76-75.168-25.76-15.392-41.952-35.744-47.136-59.456-5.376-24.608 1.504-51.136 19.904-77.312-18.4-26.176-25.28-52.704-19.904-77.312 5.184-23.712 21.376-44.064 47.136-59.456-7.040-29.472-3.712-55.264 9.792-75.168 13.408-19.744 35.872-32.256 65.44-36.64 8.832-59.584 51.872-89.472 111.776-75.2 31.424-52.416 85.312-63.52 136.736-27.232 20.416-14.368 40.8-21.664 60.768-21.664 30.4 0 57.024 17.248 75.968 48.896 59.808-14.272 102.912 15.616 111.776 75.2 29.568 4.384 52.032 16.896 65.44 36.64 13.504 19.904 16.8 45.664 9.792 75.168 25.76 15.392 41.952 35.744 47.136 59.456 5.376 24.608-1.504 51.136-19.904 77.312 18.4 26.176 25.28 52.704 19.904 77.312-5.184 23.712-21.376 44.064-47.136 59.456 7.040 29.472 3.712 55.264-9.76 75.168zM707.584 662.496c3.904-17.888-3.36-38.752-21.088-60.352-4.832-5.888-4.832-14.4 0-20.288 17.728-21.6 24.992-42.464 21.088-60.352-4.736-21.792-25.312-35.936-41.728-43.936-7.2-3.488-10.688-11.776-8.224-19.36 5.76-17.504 10.016-42.176-2.176-60.16-12.128-17.856-36.32-22.944-54.464-24.032-8.064-0.48-14.496-6.912-15.008-14.976-1.76-28.448-12.288-62.368-52.544-62.368-9.568 0-20.224 1.92-31.68 5.664-7.648 2.56-15.872-0.992-19.36-8.192-9.536-19.52-26.56-42.784-53.632-42.784-15.456 0-32.96 7.648-50.624 22.144-2.976 2.432-6.56 3.616-10.144 3.616s-7.2-1.216-10.144-3.616c-17.664-14.496-35.168-22.112-50.624-22.144-27.072 0-44.096 23.264-53.632 42.784-3.52 7.2-11.712 10.72-19.36 8.192-11.456-3.776-22.112-5.664-31.68-5.664-40.256 0-50.784 33.92-52.544 62.368-0.512 8.064-6.944 14.496-15.008 14.976-18.144 1.12-42.336 6.176-54.464 24.032-12.224 17.984-7.936 42.656-2.176 60.16 2.464 7.584-1.024 15.872-8.224 19.36-16.416 8-36.96 22.144-41.728 43.936-3.904 17.888 3.36 38.752 21.088 60.352 4.832 5.888 4.832 14.4 0 20.288-17.728 21.6-24.992 42.464-21.088 60.352 4.736 21.792 25.312 35.936 41.728 43.936 7.2 3.488 10.688 11.776 8.224 19.36-5.76 17.504-10.016 42.176 2.176 60.16 12.128 17.856 36.32 22.944 54.464 24.032 8.064 0.48 14.496 6.912 15.008 14.976 1.728 28.48 12.256 62.368 52.512 62.368 9.568 0 20.224-1.92 31.68-5.664 7.616-2.464 15.84 1.024 19.36 8.192 9.536 19.52 26.56 42.784 53.632 42.784 15.456 0 32.96-7.648 50.624-22.144 5.952-4.832 14.368-4.832 20.32 0 17.664 14.496 35.168 22.144 50.624 22.144 27.072 0 44.096-23.264 53.632-42.784 3.488-7.168 11.712-10.656 19.36-8.192 11.456 3.776 22.112 5.664 31.68 5.664 40.256 0 50.784-33.92 52.544-62.368 0.512-8.064 6.944-14.496 15.008-14.976 18.144-1.12 42.336-6.176 54.464-24.032 12.224-17.984 7.936-42.656 2.176-60.16-2.464-7.584 1.024-15.872 8.224-19.36 16.416-8.032 36.992-22.144 41.728-43.936zM160 224c-8.832 0-16-7.168-16-16v-222.272c0-18.272 10.368-34.816 27.52-43.2 18.816-9.152 40.384-6.944 56.576 5.728l138.784 108.48 140.096-109.504c9.568-7.488 21.056-11.328 32.736-11.328 8.064 0 16.544 1.856 24.224 5.6 17.152 8.352 28.096 24.928 28.096 43.2v223.296c0 8.832-7.168 16-16 16s-16-7.168-16-16v-223.264c0-8.704-7.168-12.992-10.144-14.464-6.048-2.912-14.752-3.904-22.528 2.176l-63.36 49.856v119.456c0 8.832-7.168 16-16 16s-16-7.168-16-16v-94.464l-54.784 42.368c-5.76 4.544-14.016 4.544-19.744 0l-53.472-41.696v93.792c0 8.832-7.168 16-16 16s-16-7.168-16-16v-118.816l-63.52-49.472c-7.776-6.048-16.768-5.12-22.816-2.176-2.976 1.44-9.664 5.76-9.664 14.432v222.272c0 8.832-7.168 16-16 16zM457.504 692.64l-110.656-147.136-68.8 70.592c-6.208 6.336-16.352 6.432-22.624 0.288-6.336-6.176-6.464-16.288-0.32-22.624l81.856-80.416c3.008-3.136 7.136-1.344 11.456-1.344 0.352 0 0.672 0 1.024 0 4.672 0 8.928-0.864 11.744 2.848l121.888 160.32c5.312 7.072 3.904 16.224-3.168 21.504-7.008 5.344-17.088 3.072-22.4-4.032z" />
<glyph unicode="&#xe90c;" glyph-name="badge2" horiz-adv-x="704" d="M704 608c0 194.080-157.92 352-352 352s-352-157.92-352-352c0-186.528 140.096-339.2 323.712-350.848l16.16-42.4-85.92-232.768-68.832 76.8c-3.584 3.872-7.936 5.792-13.472 4.992l-104.448-15.648 71.584 206.944c3.168 8.288-0.864 17.536-9.12 20.672-8.16 3.136-17.44-0.96-20.608-9.216l-81.152-232.544c-2.016-5.312-1.088-11.328 2.496-15.744s9.056-6.72 14.848-5.792l123.488 18.4 82.048-89.664c3.040-3.328 7.328-5.184 11.776-5.184 0.992 0 2.016 0.096 3.008 0.288 5.44 1.024 9.984 4.832 11.936 9.984l85.344 223.584 85.344-223.584c1.984-5.152 6.496-8.96 11.936-9.984 0.992-0.192 1.984-0.288 3.008-0.288 4.448 0 8.736 1.856 11.808 5.184l82.016 89.664 123.488-18.4c5.76-0.832 11.328 1.408 14.88 5.824 3.552 4.48 4.48 10.464 2.4 15.776l-87.36 243.744c-3.168 8.256-12.448 12.32-20.672 9.12s-12.352-12.48-9.12-20.672l77.408-218.080-104.672 15.616c-5.472 0.8-10.592-1.12-14.176-4.992l-70.272-76.8-104.832 274.656c188.48 6.368 339.968 161.312 339.968 351.36zM352 288c-176.448 0-320 143.552-320 320s143.552 320 320 320 320-143.552 320-320-143.552-320-320-320zM352 784c-97.024 0-176-78.976-176-176s78.976-176 176-176 176 78.976 176 176-78.976 176-176 176zM352 464c-79.392 0-144 64.608-144 144s64.608 144 144 144 144-64.608 144-144-64.608-144-144-144z" />
<glyph unicode="&#xe90d;" glyph-name="bargraph" horiz-adv-x="1152" d="M832 624v-640c0-5.632 1.152-10.976 2.944-16h-101.888c1.792 5.024 2.944 10.368 2.944 16v928c0 26.464-21.536 48-48 48h-224c-26.464 0-48-21.536-48-48v-928c0-5.632 1.152-10.976 2.944-16h-101.888c1.792 5.024 2.944 10.368 2.944 16v352c0 26.464-21.536 48-48 48h-224c-26.464 0-48-21.536-48-48v-352c0-26.464 21.536-48 48-48h1056c26.464 0 48 21.536 48 48v640c0 26.464-21.536 48-48 48h-224c-26.464 0-48-21.536-48-48zM160-32h-112c-8.8 0-16 7.168-16 16v352c0 8.832 7.2 16 16 16h224c8.8 0 16-7.168 16-16v-352c0-8.832-7.2-16-16-16h-112zM464-32c-8.8 0-16 7.168-16 16v928c0 8.832 7.2 16 16 16h224c8.8 0 16-7.168 16-16v-928c0-8.832-7.2-16-16-16h-224zM1120 624v-640c0-8.832-7.2-16-16-16h-224c-8.8 0-16 7.168-16 16v640c0 8.832 7.2 16 16 16h224c8.8 0 16-7.168 16-16z" />
<glyph unicode="&#xe90e;" glyph-name="basket" horiz-adv-x="1344" d="M1264 512h-1184c-4.928 0-9.6-2.272-12.64-6.144s-4.096-8.928-2.912-13.728l128.192-512.544c3.072-10.784 12.512-43.584 47.36-43.584h864c34.976 0 44.32 32.832 47.52 44.128l128 512c1.184 4.768 0.128 9.856-2.912 13.728-3.008 3.872-7.68 6.144-12.608 6.144zM1120.64-11.616c-5.824-20.384-11.84-20.384-16.64-20.384h-864c-4.768 0-10.752 0-16.48 19.872l-123.008 492.128h1143.008l-122.88-491.616zM592 64c8.832 0 16 7.168 16 16v288c0 8.832-7.168 16-16 16s-16-7.168-16-16v-288c0-8.832 7.168-16 16-16zM367.968 64c0.608 0 1.184 0.032 1.824 0.096 8.768 0.992 15.104 8.896 14.112 17.664l-32 288c-0.96 8.8-8.64 15.008-17.696 14.144-8.768-0.992-15.104-8.896-14.112-17.664l32-288c0.896-8.192 7.84-14.24 15.872-14.24zM784 64c8.832 0 16 7.168 16 16v288c0 8.832-7.168 16-16 16s-16-7.168-16-16v-288c0-8.832 7.168-16 16-16zM974.208 64.096c0.64-0.064 1.216-0.096 1.824-0.096 8.032 0 14.976 6.048 15.872 14.24l32 288c0.96 8.768-5.344 16.672-14.112 17.664-9.184 0.896-16.704-5.344-17.696-14.144l-32-288c-0.96-8.768 5.344-16.672 14.112-17.664zM1104 576c3.712 0 7.424 1.28 10.464 3.904 6.688 5.792 7.392 15.872 1.632 22.56l-304 352c-5.792 6.72-15.872 7.392-22.56 1.664-6.688-5.792-7.392-15.872-1.632-22.56l304-352c3.168-3.68 7.616-5.568 12.096-5.568zM570.112 956.384c-6.816 5.536-16.896 4.608-22.496-2.272l-288-352c-5.6-6.816-4.608-16.896 2.24-22.528 2.976-2.4 6.592-3.584 10.144-3.584 4.64 0 9.216 1.984 12.384 5.888l288 352c5.6 6.816 4.576 16.896-2.272 22.496zM1328 640h-128c-8.832 0-16-7.168-16-16s7.168-16 16-16h128c8.832 0 16 7.168 16 16s-7.168 16-16 16zM432 608h512c8.832 0 16 7.168 16 16s-7.168 16-16 16h-512c-8.832 0-16-7.168-16-16s7.168-16 16-16zM16 608h160c8.832 0 16 7.168 16 16s-7.168 16-16 16h-160c-8.832 0-16-7.168-16-16s7.168-16 16-16z" />
<glyph unicode="&#xe90f;" glyph-name="battery" horiz-adv-x="1120" d="M48 160h304c8.832 0 16 7.168 16 16s-7.168 16-16 16h-304c-8.832 0-16 7.168-16 16v480c0 8.8 7.2 16 16 16h301.824c8.832 0 16 7.168 16 16s-7.168 16-16 16h-301.824c-26.4 0-48-21.6-48-48v-480c0-26.4 21.6-48 48-48zM992 576v112c0 26.4-21.6 48-48 48h-298.592c-8.832 0-16-7.168-16-16s7.168-16 16-16h298.592c8.8 0 16-7.2 16-16v-480c0-8.8-7.2-16-16-16h-323.456c-8.832 0-16-7.168-16-16s7.168-16 16-16h323.456c26.4 0 48 21.6 48 48v80h80c26.4 0 48 21.6 48 48v192c0 26.496-21.504 48-48 48h-80zM1088 528v-192c0-8.8-7.2-16-16-16h-80v224h80c8.832 0 16-7.168 16-16zM413.088-62.88c1.92-0.768 3.872-1.12 5.856-1.12 5.568 0 10.944 4.896 13.888 9.952l340.8 594.4c2.848 4.96 7.264 19.68 4.384 24.64-2.848 4.96-8.032 11.008-18.272 11.008h-226.56l98.144 371.744c1.952 7.52-1.824 7.584-8.896 10.784-7.040 3.264-15.424 0.8-19.84-5.664l-368.096-543.392c-3.328-4.896-3.648-11.392-0.864-16.64 2.752-5.216 8.192-8.832 14.112-8.832h254.4l-98.816-428.736c-1.76-7.744 2.4-15.264 9.76-18.144zM537.856 396.896c1.088 4.736-0.032 9.568-3.072 13.408-3.072 3.808-7.648 5.696-12.544 5.696h-244.32l299.296 444-78.176-301.504c-1.216-4.768-2.016-9.088 0.992-12.992s16.96-1.504 12.512-1.504h219.552l-273.472-483.232 79.232 336.128z" />
<glyph unicode="&#xe910;" glyph-name="beaker" horiz-adv-x="864" d="M560 928c8.832 0 16 7.168 16 16s-7.168 16-16 16h-288c-8.832 0-16-7.168-16-16s7.168-16 16-16h288zM31.68 75.68c-34.368-48.352-30.528-79.936-21.248-97.92 9.824-19.040 35.424-41.76 101.568-41.76h640c66.144 0 91.744 22.72 101.568 41.792 9.28 17.984 13.12 49.568-20.736 97.088l-199.008 318.4-2.816 3.968c-14.304 20.416-87.008 146.048-87.008 250.752v232c0 8.832-7.168 16-16 16h-224c-8.832 0-16-7.168-16-16v-232c0-111.712-78.88-254.624-79.776-256.16l-176.544-316.16zM825.152-7.52c-8.032-15.584-34.688-24.48-73.152-24.48h-640c-38.464 0-65.12 8.896-73.152 24.48-7.328 14.208-0.64 37.184 19.84 66.112l159.968 286.336 0.224-0.128c29.12-16.8 59.232-34.176 119.008-34.176s89.92 17.344 119.008 34.112c26.656 15.36 51.808 29.888 103.040 29.888 19.424 0 36.256-2.4 51.744-6.72l194.56-310.784c19.552-27.456 26.24-50.432 18.912-64.64zM320 648v216h192v-216c0-90.88 48.512-193.344 76.928-243.264-9.28 1.056-18.72 1.888-28.96 1.888-59.808 0-89.92-17.344-119.008-34.112-26.656-15.36-51.808-29.888-103.040-29.888s-76.384 14.528-103.008 29.888l-0.608 0.352 1.472 2.624c0.8 1.28 84.224 149.952 84.224 272.512z" />
<glyph unicode="&#xe911;" glyph-name="bike" horiz-adv-x="1792" d="M1456 608c-61.568 0-119.136-16.928-168.832-45.952l-217.632 333.952h307.168c-0.416-15.936-4.128-42.592-22.368-63.552-18.784-21.536-49.152-32.448-90.336-32.448-8.832 0-16-7.168-16-16s7.168-16 16-16c50.848 0 89.344 14.592 114.432 43.392 37.216 42.752 29.76 100.352 29.408 102.784-1.088 7.904-7.84 13.824-15.84 13.824h-352c-5.888 0-11.296-3.232-14.048-8.384-2.816-5.152-2.56-11.424 0.672-16.384l90.592-139.008h-507.68l-98.656 163.776h177.12c8.832 0 16 7.168 16 16s-7.168 16-16 16h-288c-8.832 0-16-7.168-16-16s7.168-16 16-16h74.048c0.32-0.736 0.384-1.536 0.8-2.24l109.184-181.184-97.728-172.48c-45.28 22.752-96.224 35.904-150.304 35.904-185.28 0-336-150.72-336-336s150.72-336 336-336c178.816 0 325.024 140.512 333.44 320h354.56c0.928-18.528-3.072-43.776-20.608-63.648-18.944-21.472-49.696-32.352-91.392-32.352-8.832 0-16-7.168-16-16s7.168-16 16-16c51.456 0 90.368 14.624 115.648 43.456 36.544 41.728 29.664 97.152 29.376 99.488-1.056 7.968-7.84 13.92-15.872 13.92h-125.696l225.504 442.88 119.36-183.168c-84.8-61.024-140.32-160.32-140.32-272.576 0-185.28 150.72-336 336-336s336 150.72 336 336-150.72 336-336 336zM1107.36 736l-219.136-434.176-259.392 434.176h478.528zM602.976 713.12l258.080-428.256h-189.696c-4.352 114.4-65.984 214.144-157.184 271.488l88.8 156.768zM639.36 284.864h-279.008l138.048 243.68c81.536-51.808 136.608-141.184 140.96-243.68zM336-32c-167.616 0-304 136.384-304 304s136.384 304 304 304c48.32 0 93.888-11.648 134.528-31.776l-151.552-267.456c-2.816-4.928-2.784-11.008 0.096-15.936 2.848-4.896 8.128-7.936 13.824-4.8h306.144c-9.952-161.856-141.856-288.032-303.040-288.032zM1456-32c-167.616 0-304 136.384-304 304 0 101.024 49.728 190.464 125.824 245.76l167.904-257.632c3.072-4.672 8.192-7.264 13.408-7.264 3.008 0 6.016 0.832 8.736 2.592 7.36 4.8 9.472 14.752 4.672 22.144l-167.904 257.632c44.64 25.792 96.224 40.768 151.36 40.768 167.616 0 304-136.384 304-304s-136.384-304-304-304z" />
<glyph unicode="&#xe912;" glyph-name="blog" horiz-adv-x="1216" d="M1168-64h-1120c-26.464 0-48 21.536-48 48v928c0 26.464 21.536 48 48 48h1120c26.464 0 48-21.536 48-48v-928c0-26.464-21.536-48-48-48zM48 928c-8.832 0-16-7.168-16-16v-928c0-8.832 7.168-16 16-16h1120c8.832 0 16 7.168 16 16v928c0 8.832-7.168 16-16 16h-1120zM560 96h-352c-26.464 0-48 21.536-48 48v256c0 26.464 21.536 48 48 48h352c26.464 0 48-21.536 48-48v-256c0-26.464-21.536-48-48-48zM208 416c-8.832 0-16-7.168-16-16v-256c0-8.832 7.168-16 16-16h352c8.832 0 16 7.168 16 16v256c0 8.832-7.168 16-16 16h-352zM1008 544h-800c-26.464 0-48 21.536-48 48v160c0 26.464 21.536 48 48 48h800c26.464 0 48-21.536 48-48v-160c0-26.464-21.536-48-48-48zM208 768c-8.832 0-16-7.168-16-16v-160c0-8.832 7.168-16 16-16h800c8.832 0 16 7.168 16 16v160c0 8.832-7.168 16-16 16h-800zM1024 384h-320c-8.832 0-16 7.168-16 16s7.168 16 16 16h320c8.832 0 16-7.168 16-16s-7.168-16-16-16zM1024 256h-320c-8.832 0-16 7.168-16 16s7.168 16 16 16h320c8.832 0 16-7.168 16-16s-7.168-16-16-16zM1024 128h-320c-8.832 0-16 7.168-16 16s7.168 16 16 16h320c8.832 0 16-7.168 16-16s-7.168-16-16-16z" />
<glyph unicode="&#xe913;" glyph-name="body" horiz-adv-x="1056" d="M22.24 350.24c8.672 1.664 14.368 10.048 12.704 18.72-0.224 1.152-21.216 115.968 52.544 204.864 3.68 4.448 4.672 10.528 2.656 15.936-0.416 1.088-41.536 111.328 11.008 193.536 34.464 53.92 102.016 84.704 200.768 91.52 3.616 0.256 7.040 1.728 9.696 4.192 0.512 0.448 50.56 45.888 100.288 48.992 8.832 0.576 15.52 8.16 14.976 16.96s-8.608 16-16.96 14.976c-52.064-3.264-100.992-41.216-115.584-53.568-106.56-8.352-180.608-43.936-220.128-105.824-52.416-82.048-26.624-183.040-16.992-213.376-76.544-99.136-54.656-219.072-53.696-224.224 1.472-7.68 8.16-12.992 15.712-12.992 0.992 0.032 2.016 0.096 3.008 0.288zM265.728-59.008c3.136-3.296 7.36-4.992 11.616-4.992 3.936 0 7.904 1.44 10.976 4.384 6.432 6.048 6.72 16.192 0.64 22.624-23.456 24.832-18.784 105.28-10.080 152.384 0.16 3.392 3.424 84.576-26.432 158.080-20.768 51.136-23.296 119.616-23.296 149.568 0.224 5.248 0.32 10.56 0.256 15.936-0.096 8.672-7.040 15.68-15.712 15.84-8.256 0-15.872-6.592-16.288-15.264-0.032-0.96-0.32-6.976-0.32-16.576-4.736-96.832-60.192-172.576-60.768-173.344-5.28-7.104-3.808-17.12 3.296-22.368 7.072-5.344 17.088-3.84 22.368 3.264 1.696 2.208 25.92 35.168 44.864 85.952 3.744-18.784 8.896-37.664 15.968-55.072 26.88-66.208 24.192-142.368 24.384-142.336-2.592-13.6-23.776-133.28 18.528-178.080zM981.824 800.576c-39.552 61.888-113.6 97.472-220.128 105.824-14.624 12.352-63.52 50.304-115.584 53.6-8.224 0.992-16.416-6.144-16.96-14.976-0.576-8.8 6.144-16.416 14.976-16.96 49.504-3.136 99.808-48.576 100.288-49.024 2.656-2.432 6.080-3.904 9.696-4.16 98.656-6.816 166.176-37.568 200.672-91.36 52.512-81.952 11.52-192.64 11.104-193.728-2.048-5.376-1.024-11.456 2.656-15.904 73.44-88.544 52.768-203.712 52.544-204.864-1.632-8.672 4.064-17.056 12.736-18.72 1.024-0.192 2.016-0.288 3.008-0.288 7.52 0 14.208 5.344 15.68 12.992 0.992 5.152 22.848 125.088-53.696 224.224 9.632 30.304 35.424 131.264-16.992 213.344zM849.152 316.48c18.944-50.784 43.168-83.712 44.864-85.952 5.312-7.104 15.328-8.608 22.368-3.264 7.104 5.248 8.544 15.296 3.296 22.368-0.608 0.768-56.032 76.512-60.768 173.344 0 9.6-0.288 15.584-0.32 16.576-0.416 8.672-7.52 15.2-16.288 15.264-8.672-0.16-15.616-7.2-15.712-15.84-0.032-5.44 0.032-10.816 0.256-16.128 0-30.016-2.496-98.272-23.296-149.376-29.856-73.536-26.592-154.688-26.144-160.352 8.48-44.832 13.184-125.216-10.336-150.112-6.080-6.432-5.792-16.576 0.64-22.624 3.040-2.944 6.976-4.384 10.944-4.384 4.256 0 8.48 1.696 11.616 4.992 42.304 44.768 21.088 164.576 18.784 175.808-0.032 0.736-3.040 77.728 24.096 144.608 7.104 17.408 12.256 36.288 16 55.072zM852.192 627.104c-8.832 0-16-7.168-16-16 0-87.712-72.768-159.104-162.24-159.104-51.616 0-99.040 23.424-130.048 64.352-6.048 7.936-19.424 7.968-25.504-0.032-31.008-40.864-78.432-64.32-130.048-64.32-89.44 0-162.24 71.36-162.24 159.104 0 8.832-7.168 16-16 16s-16-7.168-16-16c0-105.376 87.136-191.104 194.24-191.104 55.040 0 106.080 22.304 142.816 61.824 36.736-39.488 87.776-61.824 142.816-61.824 107.104 0 194.24 85.728 194.24 191.104-0.032 8.832-7.168 16-16.032 16zM669.92 786.592c-50.24-13.152-110.816-55.68-135.52-74.144-59.968 54.816-138.944 73.472-142.464 74.272-8.672 1.952-17.216-3.392-19.2-12-1.984-8.64 3.392-17.216 12-19.2 0.832-0.192 82.656-19.52 136.96-75.328 3.136-3.232 7.296-4.832 11.456-4.832 3.52 0 7.040 1.152 9.984 3.488 0.768 0.64 77.888 61.888 134.848 76.8 8.544 2.208 13.664 10.976 11.424 19.52-2.208 8.544-10.912 13.76-19.488 11.424z" />
<glyph unicode="&#xe914;" glyph-name="book-open" horiz-adv-x="1344" d="M1200 928h-512c-12.704 0-23.68-4.352-32-11.584-8.32 7.232-19.296 11.584-32 11.584h-512c-27.808 0-48-20.192-48-48v-896c0-27.808 20.192-48 48-48h512c12.704 0 23.68 4.352 32 11.584 8.32-7.232 19.296-11.584 32-11.584h512c27.808 0 48 20.192 48 48v896c0 27.808-20.192 48-48 48zM624-32h-512c-10.016 0-16 5.984-16 16v896c0 10.016 5.984 16 16 16h512c10.016 0 16-5.984 16-16v-896c0-10.016-5.984-16-16-16zM1216-16c0-10.016-5.984-16-16-16h-512c-10.016 0-16 5.984-16 16v896c0 10.016 5.984 16 16 16h512c10.016 0 16-5.984 16-16v-896zM1296 864c-8.832 0-16-7.168-16-16v-832c0-8.832 7.168-16 16-16s16 7.168 16 16v832c0 8.832-7.168 16-16 16zM16 0c8.832 0 16 7.168 16 16v832c0 8.832-7.168 16-16 16s-16-7.168-16-16v-832c0-8.832 7.168-16 16-16zM560 640h-384c-8.832 0-16-7.168-16-16s7.168-16 16-16h384c8.832 0 16 7.168 16 16s-7.168 16-16 16zM560 512h-384c-8.832 0-16-7.168-16-16s7.168-16 16-16h384c8.832 0 16 7.168 16 16s-7.168 16-16 16zM560 768h-384c-8.832 0-16-7.168-16-16s7.168-16 16-16h384c8.832 0 16 7.168 16 16s-7.168 16-16 16zM560 384h-384c-8.832 0-16-7.168-16-16s7.168-16 16-16h384c8.832 0 16 7.168 16 16s-7.168 16-16 16zM560 256h-384c-8.832 0-16-7.168-16-16s7.168-16 16-16h384c8.832 0 16 7.168 16 16s-7.168 16-16 16zM560 128h-384c-8.832 0-16-7.168-16-16s7.168-16 16-16h384c8.832 0 16 7.168 16 16s-7.168 16-16 16zM1136 640h-384c-8.832 0-16-7.168-16-16s7.168-16 16-16h384c8.832 0 16 7.168 16 16s-7.168 16-16 16zM1136 512h-384c-8.832 0-16-7.168-16-16s7.168-16 16-16h384c8.832 0 16 7.168 16 16s-7.168 16-16 16zM1136 768h-384c-8.832 0-16-7.168-16-16s7.168-16 16-16h384c8.832 0 16 7.168 16 16s-7.168 16-16 16zM1136 384h-384c-8.832 0-16-7.168-16-16s7.168-16 16-16h384c8.832 0 16 7.168 16 16s-7.168 16-16 16zM1136 256h-384c-8.832 0-16-7.168-16-16s7.168-16 16-16h384c8.832 0 16 7.168 16 16s-7.168 16-16 16zM1136 128h-384c-8.832 0-16-7.168-16-16s7.168-16 16-16h384c8.832 0 16 7.168 16 16s-7.168 16-16 16z" />
<glyph unicode="&#xe915;" glyph-name="box" horiz-adv-x="864" d="M863.648 710.528c-0.16 1.856-0.608 3.584-1.408 5.28-0.32 0.672-0.544 1.28-0.928 1.92-1.248 1.984-2.88 10.24-4.992 11.52-0.096 0.064-0.128 6.752-0.224 6.752-0.032 0-0.032 0-0.064 0l-399.968 225.664c-4.832 2.816-10.752-0.352-15.584-2.944l-432-231.424c-5.984-3.2-9.024-10.368-8.32-16.672 0-0.192-0.16-1.184-0.16-1.408v-522.432c0-5.76 3.136-11.072 8.16-13.888l416-232.192c2.432-1.344 5.152-2.016 7.84-2.016s5.408 0.672 7.84 2.016l416 232.192c5.024 2.816 8.16 8.16 8.16 13.888v522.432c0 0.48-0.32 0.864-0.352 1.312zM447.648 923.2l368.128-213.696-383.168-213.888c-0.224 0-0.384 0.128-0.608 0.128s-0.384-0.128-0.608-0.128l-384.256 214.528 400.512 213.056zM832 196.128l-400-223.264-400 223.264v485.92l384-214.368v-401.696c0-8.8 7.168-15.904 16-15.904s16 7.104 16 15.904v401.728l384 214.368v-485.952z" />
<glyph unicode="&#xe916;" glyph-name="briefcase" horiz-adv-x="1216" d="M1200 384c-8.832 0-16-7.168-16-16v-384c0-8.832-7.168-16-16-16h-1120c-8.832 0-16 7.168-16 16v384c0 8.832-7.168 16-16 16s-16-7.168-16-16v-384c0-26.464 21.536-48 48-48h1120c26.464 0 48 21.536 48 48v384c0 8.832-7.168 16-16 16zM816 800c8.832 0 16 7.168 16 16v96c0 26.464-21.536 48-48 48h-352c-26.464 0-48-21.536-48-48v-96c0-8.832 7.168-16 16-16s16 7.168 16 16v96c0 8.832 7.168 16 16 16h352c8.832 0 16-7.168 16-16v-96c0-8.832 7.168-16 16-16zM1168 736h-1120c-26.464 0-48-21.536-48-48v-158.656c0-88.896 302.592-208 612-208 305.376 0 604 119.104 604 208v158.656c0 26.464-21.536 48-48 48zM1184 529.344c0-56.448-270.624-176-572-176-305.6 0-580 119.52-580 176v158.656c0 8.832 7.168 16 16 16h1120c8.832 0 16-7.168 16-16v-158.656zM612 224c30.176 0 61.536 1.248 93.248 3.712 8.8 0.672 15.392 8.384 14.688 17.216-0.672 8.8-8.064 15.552-17.216 14.688-64.448-5.024-125.088-4.8-189.408 0.64-8.448 0.864-16.544-5.792-17.28-14.592s5.792-16.544 14.592-17.28c34.432-2.912 68.544-4.384 101.376-4.384z" />
<glyph unicode="&#xe917;" glyph-name="browser" horiz-adv-x="1344" d="M1328 640c-8.832 0-16-7.168-16-16v-640c0-8.832-7.168-16-16-16h-1248c-8.832 0-16 7.168-16 16v640c0 8.832-7.168 16-16 16s-16-7.168-16-16v-640c0-26.464 21.536-48 48-48h1248c26.464 0 48 21.536 48 48v640c0 8.832-7.168 16-16 16zM1296 960h-1248c-26.464 0-48-21.536-48-48v-192c0-8.832 7.168-16 16-16h1312c8.832 0 16 7.168 16 16v192c0 26.464-21.536 48-48 48zM1312 736h-1280v176c0 8.832 7.168 16 16 16h1248c8.832 0 16-7.168 16-16v-176zM560 64c8.832 0 16 7.168 16 16v512c0 8.832-7.168 16-16 16h-416c-8.832 0-16-7.168-16-16v-512c0-8.832 7.168-16 16-16h416zM160 576h384v-480h-384v480zM720 480h480c8.832 0 16 7.168 16 16s-7.168 16-16 16h-480c-8.832 0-16-7.168-16-16s7.168-16 16-16zM720 320h480c8.832 0 16 7.168 16 16s-7.168 16-16 16h-480c-8.832 0-16-7.168-16-16s7.168-16 16-16zM720 160h480c8.832 0 16 7.168 16 16s-7.168 16-16 16h-480c-8.832 0-16-7.168-16-16s7.168-16 16-16zM160 832c0-17.673-14.327-32-32-32s-32 14.327-32 32c0 17.673 14.327 32 32 32s32-14.327 32-32zM288 832c0-17.673-14.327-32-32-32s-32 14.327-32 32c0 17.673 14.327 32 32 32s32-14.327 32-32zM416 832c0-17.673-14.327-32-32-32s-32 14.327-32 32c0 17.673 14.327 32 32 32s32-14.327 32-32z" />
<glyph unicode="&#xe918;" glyph-name="brush1" horiz-adv-x="736" d="M0 912v-256c0-26.4 21.6-48 48-48h640c26.496 0 48 21.504 48 48v272c0 17.664-14.336 32-32 32h-144c-8.832 0-16-7.168-16-16v-88.832l-67.072 98.528c-3.008 3.968-7.264 6.304-12.256 6.304h-416.672c-26.496 0-48-21.504-48-48zM544 798.048c4.192-5.472 14.88-10.304 21.344-8.064 6.496 2.208 10.656 10.912 10.656 17.792v120.224h112c8.832 0 16-7.168 16-16v-256c0-8.8-7.2-16-16-16h-640c-8.832 0-16 7.168-16 16v256c0 8.8 7.2 16 16 16h80v-112c0-8.832 7.168-16 16-16s16 7.168 16 16v112h96v-176c0-8.832 7.168-16 16-16s16 7.168 16 16v176h160l96-129.952zM0 432c0-26.4 21.6-48 48-48h170.336c24.224 0 47.136-13.376 62.816-30.912 14.656-16.416 21.408-40.544 19.008-61.952l-27.712-247.744c0-59.232 50.048-107.392 111.552-107.392s111.552 48.992 111.456 109.984l-27.616 246.784c-2.4 21.408 4.352 43.904 19.008 60.32 15.712 17.536 38.592 30.912 62.816 30.912h138.336c26.496 0 48 21.504 48 48v96c0 8.832-7.168 16-16 16s-16-7.168-16-16v-96c0-8.8-7.2-16-16-16h-138.336c-33.344 0-64.928-17.216-86.656-41.504-20.832-23.328-30.4-56.224-26.976-86.816l27.52-244.064c0-41.568-35.68-75.168-79.552-75.168s-79.552 34.24-79.648 74.016l27.616 246.784c3.424 30.592-6.144 61.888-26.976 85.184-21.76 24.32-53.344 41.6-86.656 41.6h-170.336c-8.832 0-16 7.168-16 16v96c0 8.8-7.168 15.968-16 15.968s-16-7.168-16-16v-96z" />
<glyph unicode="&#xe919;" glyph-name="brush2" horiz-adv-x="1120" d="M973.376 939.776l-455.456-370.56c-6.848-5.568-7.904-15.648-2.304-22.496s15.648-7.936 22.496-2.304l455.456 370.56c22.72 18.464 55.808 17.216 77.024-2.912 20.992-19.936 23.328-52.032 5.376-74.656l-364.288-459.456c-5.504-6.912-4.32-16.992 2.592-22.464 2.944-2.368 6.432-3.488 9.92-3.488 4.704 0 9.376 2.080 12.544 6.048l364.288 459.456c28.32 35.68 24.704 86.304-8.416 117.76-32.832 31.2-84.128 33.12-119.232 4.512zM297.024-64c71.808 0 139.904 16.384 196.928 47.328 142.272 77.312 171.744 230.176 177.824 292.32 1.6 16.416-4.352 32.512-16.288 44.096l-147.936 143.872c-9.344 9.152-21.568 14.624-34.4 15.392-240.192 14.784-281.472-152.896-308.8-262.432l-1.408-5.76c-18.208-72.8-91.776-96.896-134.016-104.736-12.672-2.368-22.72-11.008-26.944-23.104-4.224-12.192-1.632-25.344 6.944-35.168 60.288-68.928 170.656-111.808 288.096-111.808zM32.192 72.576c0.608 1.76 2.080 2.016 2.592 2.112 49.792 9.28 136.672 38.304 159.2 128.448l1.44 5.76c26.56 106.528 59.648 239.104 248.288 239.104 8.832 0 17.952-0.288 27.456-0.864 5.088-0.32 10.208-2.656 14.048-6.4l147.936-143.904c4.928-4.8 7.392-11.392 6.752-18.048-5.568-57.056-32.448-197.344-161.248-267.328-52.352-28.416-115.168-43.456-181.632-43.456-106.816 0-210.432 39.616-264 100.928-1.248 1.408-1.12 2.752-0.832 3.648z" />
<glyph unicode="&#xe91a;" glyph-name="brush3" horiz-adv-x="896" d="M768 720v192c0 26.464-21.536 48-48 48h-512c-26.464 0-48-21.536-48-48v-192c0-26.464 21.536-48 48-48h512c26.464 0 48 21.536 48 48zM192 720v192c0 8.832 7.168 16 16 16h512c8.832 0 16-7.168 16-16v-192c0-8.832-7.168-16-16-16h-512c-8.832 0-16 7.168-16 16zM48 800h33.888c8.832 0 16 7.168 16 16s-7.168 16-16 16h-33.888c-26.464 0-48-19.616-48-46.080v-229.696c0-26.464 21.536-44.224 48-44.224h384c8.832 0 16-10.944 16-19.776v-58.304c0-8.832 7.168-16 16-16s16 7.168 16 16v58.304c0 26.464-21.536 51.776-48 51.776h-384c-8.832 0-16 3.392-16 12.224v229.696c0 8.832 7.168 14.080 16 14.080zM880 802.304c8.832 0 16 7.168 16 16s-7.168 16-16 16h-32c-8.832 0-16-7.168-16-16s7.168-16 16-16h32zM400 352c-26.496 0-48-21.504-48-48v-320c0-26.496 21.504-48 48-48h128c26.496 0 48 21.504 48 48v320c0 26.496-21.504 48-48 48h-128zM544 304v-320c0-8.832-7.168-16-16-16h-128c-8.832 0-16 7.168-16 16v320c0 8.832 7.168 16 16 16h128c8.832 0 16-7.168 16-16z" />
<glyph unicode="&#xe91b;" glyph-name="bug" d="M1008 384h-128c-0.256 0-0.48-0.128-0.736-0.16-1.248 107.84-35.488 208.96-93.472 287.136 0.704 0.48 1.504 0.736 2.144 1.344l102.688 96c6.464 6.016 6.784 16.16 0.768 22.624s-16.16 6.784-22.624 0.768l-102.208-95.552c-19.68 22.688-41.952 42.336-65.824 59.584 0.032 0.448 0.256 0.896 0.256 1.344 0 29.632-15.488 56.512-41.568 77.6 0.992 0.64 2.080 1.088 2.944 1.952l96.48 96c6.272 6.24 6.304 16.352 0.064 22.624s-16.416 6.336-22.624 0.064l-96.48-96c-2.464-2.432-3.648-5.504-4.192-8.672-33.6 18.816-77.632 30.144-126.656 30.144-47.904 0-91.104-10.816-124.416-28.832-0.736 2.816-1.952 5.536-4.224 7.68l-101.792 96c-6.432 6.080-16.576 5.792-22.624-0.672s-5.76-16.576 0.672-22.624l101.792-96c0.352-0.352 0.8-0.448 1.184-0.768-26.656-21.184-42.56-48.416-42.56-78.464 0-1.632 0.352-3.232 0.832-4.768-22.368-16.736-43.232-35.744-61.824-57.344l-101.344 95.36c-6.432 6.016-16.544 5.76-22.624-0.672-6.016-6.432-5.728-16.576 0.704-22.624l102.016-96c0.576-0.544 1.312-0.8 1.952-1.248-57.472-78.112-91.424-178.912-92.736-285.824h-127.968c-8.832 0-16-7.168-16-16s7.168-16 16-16h128c0.256 0 0.448 0.128 0.704 0.128 3.84-80.192 25.28-154.784 60.192-217.984l-94.688-94.688c-6.24-6.24-6.24-16.384 0-22.624 3.136-3.136 7.232-4.672 11.328-4.672s8.192 1.568 11.328 4.672l89.216 89.216c63.168-96.8 159.040-160.96 267.616-168.736 1.92-0.832 4.032-1.312 6.304-1.312 1.28 0 2.432 0.448 3.616 0.736 4.032-0.16 7.968-0.736 12-0.736 117.568 0 222.176 66.784 289.6 170.112l90.112-90.112c3.136-3.136 7.232-4.672 11.328-4.672s8.192 1.568 11.328 4.672c6.24 6.24 6.24 16.384 0 22.624l-95.584 95.584c34.944 63.2 56.352 137.824 60.192 218.080 0.448-0.032 0.896-0.288 1.408-0.288h128c8.832 0 16 7.168 16 16s-7.168 16-16 16zM508.992 848.8c82.976 0 153.632-38.432 159.584-85.312-52.352-49.568-106.432-74.72-160.832-74.72 0 0 0 0 0 0-81.888 0-142.56 57.472-158.432 74.144 5.472 47.136 76.384 85.888 159.68 85.888zM512-31.968v495.968c0 8.832-7.168 16-16 16s-16-7.168-16-16v-494.048c-170.464 19.52-304.384 194.848-304.384 407.744 0 143.776 62.496 276.544 163.264 350.624 25.152-23.264 75.008-60.768 141.12-69.472v-50.944c0-8.832 7.168-16 16-16s16 7.168 16 16v49.152c57.728 1.152 114.24 26.112 168.32 74.144 103.264-73.44 167.296-207.264 167.296-353.504 0-225.76-150.528-409.408-335.616-409.664z" />
<glyph unicode="&#xe91c;" glyph-name="calendar" horiz-adv-x="1088" d="M1088-16v608c0 8.832-7.168 16-16 16s-16-7.168-16-16v-608c0-8.832-7.168-16-16-16h-992c-8.832 0-16 7.168-16 16v608c0 8.832-7.168 16-16 16s-16-7.168-16-16v-608c0-26.464 21.536-48 48-48h992c26.464 0 48 21.536 48 48zM144 224c-8.832 0-16-7.168-16-16s7.168-16 16-16h48v-112c0-8.832 7.168-16 16-16s16 7.168 16 16v112h192v-112c0-8.832 7.168-16 16-16s16 7.168 16 16v112h192v-112c0-8.832 7.168-16 16-16s16 7.168 16 16v112h192v-112c0-8.832 7.168-16 16-16s16 7.168 16 16v112h48c8.832 0 16 7.168 16 16s-7.168 16-16 16h-48v160h48c8.832 0 16 7.168 16 16s-7.168 16-16 16h-48v144c0 8.832-7.168 16-16 16s-16-7.168-16-16v-144h-192v144c0 8.832-7.168 16-16 16s-16-7.168-16-16v-144h-192v144c0 8.832-7.168 16-16 16s-16-7.168-16-16v-144h-192v144c0 8.832-7.168 16-16 16s-16-7.168-16-16v-144h-48c-8.832 0-16-7.168-16-16s7.168-16 16-16h48v-160h-48zM864 384v-160h-192v160h192zM640 384v-160h-192v160h192zM224 384h192v-160h-192v160zM912 864h136c2.784 0 8 0 8-16v-144h-1024v144c0 8.832 7.168 16 16 16h128c8.832 0 16 7.168 16 16s-7.168 16-16 16h-128c-26.464 0-48-21.536-48-48v-160c0-8.832 7.168-16 16-16h1056c8.832 0 16 7.168 16 16v160c0 35.392-20.672 48-40 48h-136c-8.832 0-16-7.168-16-16s7.168-16 16-16zM720 864c8.832 0 16 7.168 16 16s-7.168 16-16 16h-352c-8.832 0-16-7.168-16-16s7.168-16 16-16h352zM288 816v128c0 8.832-7.168 16-16 16s-16-7.168-16-16v-128c0-8.832 7.168-16 16-16s16 7.168 16 16zM816 800c8.832 0 16 7.168 16 16v128c0 8.832-7.168 16-16 16s-16-7.168-16-16v-128c0-8.832 7.168-16 16-16z" />
<glyph unicode="&#xe91d;" glyph-name="camera" horiz-adv-x="1344" d="M1264 768h-240c-61.664 0-63.936 57.504-64 64v32c0 40.256-44.48 96-128 96h-319.008c-93.92 0-128-57.408-128-96v-31.808c-0.032-2.624-1.536-64.192-64.992-64.192h-240c-44.128 0-80-35.904-80-80v-576c0-44.096 35.872-80 80-80h192c8.832 0 16 7.168 16 16s-7.168 16-16 16h-192c-26.464 0-48 21.536-48 48v400h256c-20.608-49.28-32-103.328-32-160 0-229.376 186.624-416 416-416s416 186.624 416 416c0 56.672-11.488 110.72-32.096 160h256.096v-400c0-26.464-21.536-48-48-48h-224c-8.832 0-16-7.168-16-16s7.168-16 16-16h224c44.128 0 80 35.904 80 80v576c0 44.096-35.872 80-80 80zM672-32c-211.744 0-384 172.256-384 384s172.256 384 384 384 384-172.256 384-384-172.256-384-384-384zM1048 544c-2.368 0-4.576-0.576-6.592-1.504-69.248 133.728-208.704 225.504-369.408 225.504s-300.16-91.776-369.408-225.504c-2.016 0.928-4.224 1.504-6.592 1.504h-264v144c0 26.464 21.536 48 48 48h240c75.776 0 96.608 62.656 96.992 96v32c0 25.728 25.568 64 96 64h319.008c67.008 0 96-42.368 96-64v-32c0-33.216 20.064-96 96-96h240c26.464 0 48-21.536 48-48v-144h-264zM304 800c8.832 0 16 7.168 16 16v32c0 26.464-21.536 48-48 48h-128c-26.464 0-48-21.536-48-48v-32c0-8.832 7.168-16 16-16s16 7.168 16 16v32c0 8.832 7.2 16 16 16h128c8.8 0 16-7.168 16-16v-32c0-8.832 7.168-16 16-16zM672 640c-158.816 0-288-129.216-288-288s129.184-288 288-288 288 129.216 288 288-129.184 288-288 288zM672 96c-141.152 0-256 114.848-256 256s114.848 256 256 256 256-114.848 256-256-114.848-256-256-256z" />
<glyph unicode="&#xe91e;" glyph-name="car1" horiz-adv-x="1280" d="M720 960h-672c-26.496 0-48-21.504-48-48v-704c0-26.496 21.504-48 48-48h672c26.496 0 48 21.504 48 48v704c0 26.496-21.504 48-48 48zM720 192h-672c-8.832 0-16 7.168-16 16v704c0 8.832 7.168 16 16 16h672c8.832 0 16-7.168 16-16v-704c0-8.832-7.168-16-16-16zM1274.624 551.488l-115.456 222.592c-7.392 14.272-26.56 25.92-42.592 25.92h-204.576c-26.496 0-48-21.504-48-48v-256c0-26.496 21.504-48 48-48h224c8.832 0 16 7.168 16 16s-7.168 16-16 16h-224c-8.832 0-16 7.168-16 16v256c0 8.832 7.168 16 16 16h185.088c17.92 0 34.368-9.984 42.624-25.92l102.912-198.464c3.552-6.816 5.376-14.4 5.376-22.080v-313.536c0-8.832-7.168-16-16-16h-352c-8.832 0-16-7.168-16-16s7.168-16 16-16h352c26.496 0 48 21.504 48 48v321.376c-1.536 6.272-3.872 15.84-5.376 22.112zM150.4 480h480c8.832 0 16 7.168 16 16s-7.136 16-16 16h-480c-8.832 0-16-7.168-16-16s7.168-16 16-16zM1168 96c-8.832 0-16-7.168-16-16 0-61.76-50.24-112-112-112s-112 50.24-112 112c0 8.832-7.168 16-16 16s-16-7.168-16-16c0-79.392 64.608-144 144-144s144 64.608 144 144c0 8.832-7.168 16-16 16zM368 96c-8.832 0-16-7.168-16-16 0-61.76-50.24-112-112-112s-112 50.24-112 112c0 8.832-7.168 16-16 16s-16-7.168-16-16c0-79.392 64.608-144 144-144s144 64.608 144 144c0 8.832-7.168 16-16 16z" />
<glyph unicode="&#xe91f;" glyph-name="carousal" horiz-adv-x="1056" d="M784 960h-512c-26.496 0-48-21.504-48-48v-928c0-26.496 21.504-48 48-48h512c26.496 0 48 21.504 48 48v928c0 26.496-21.504 48-48 48zM800-16c0-8.832-7.168-16-16-16h-512c-8.832 0-16 7.168-16 16v928c0 8.832 7.168 16 16 16h512c8.832 0 16-7.168 16-16v-928zM1013.376 52.128l-74.72 66.528c-6.592 5.888-16.704 5.344-22.592-1.312-5.888-6.592-5.28-16.672 1.312-22.56l74.72-66.56c9.056-8.032 20.256-12.224 31.712-12.224 6.656 0 5.408 1.44 11.84 4.32 17.504 7.84 20.352 24.672 20.352 43.808v767.84c0 19.168-2.976 35.936-20.48 43.808-17.44 7.744-29.312 4.768-43.648-7.904l-74.368-65.92c-6.624-5.888-7.712-16-1.824-22.592 5.824-6.592 14.944-7.168 21.568-1.344l72.128 65.92c7.168 6.336 10.944 3.616 13.184 2.624 2.208-0.96 1.44-4.96 1.44-14.592v-767.84c0-9.632 0.768-13.632-1.44-14.624-2.24-0.992-2.048-3.744-9.184 2.624zM64.192 15.936c11.424 0 22.4 4.16 31.424 12.192l73.888 65.92c6.624 5.888 6.688 16 0.832 22.592-5.888 6.624-16.992 7.168-23.584 1.344l-76.128-65.92c-7.168-6.336-18.944-3.616-21.184-2.624-2.208 0.96-17.44 4.96-17.44 14.592v767.84c0 9.632 15.136 13.632 17.344 14.624 2.24 0.992 17.888 3.712 25.024-2.624l74.496-66.528c6.592-5.888 16.224-5.312 22.080 1.312 5.888 6.592 4.288 16.672-2.304 22.56l-76.736 66.528c-14.304 12.768-38.048 15.808-55.52 7.968-17.504-7.872-36.384-24.64-36.384-43.84v-767.84c0-19.168 18.848-35.936 36.352-43.808 6.432-2.88 21.152-4.288 27.84-4.288z" />
<glyph unicode="&#xe920;" glyph-name="cart1" horiz-adv-x="1152" d="M1136 672h-656.576c-8.832 0-16-7.168-16-16s7.168-16 16-16h637.44l-71.488-384h-669.6l-189.856 692.224c-1.92 6.976-8.224 11.776-15.456 11.776h-154.464c-8.832 0-16-7.168-16-16s7.168-16 16-16h142.272l189.888-692.224c1.888-6.976 8.224-11.776 15.424-11.776h695.168c7.744 0 14.368 3.776 15.744 11.424l77.248 428.448c0.832 4.672-0.448 5.888-3.456 9.504-3.072 3.648-7.552-1.376-12.288-1.376zM534.784 28.32c0 50.912-41.408 92.32-92.32 92.32s-92.32-41.408-92.32-92.32 41.408-92.32 92.32-92.32 92.32 41.408 92.32 92.32zM382.144 28.32c0 33.248 27.072 60.32 60.32 60.32s60.32-27.072 60.32-60.32-27.072-60.32-60.32-60.32-60.32 27.072-60.32 60.32zM938.464 120.64c-50.912 0-92.32-41.408-92.32-92.32s41.408-92.32 92.32-92.32 92.32 41.408 92.32 92.32-41.408 92.32-92.32 92.32zM938.464-32c-33.248 0-60.32 27.072-60.32 60.32s27.072 60.32 60.32 60.32 60.32-27.072 60.32-60.32-27.072-60.32-60.32-60.32zM608 357.344v195.52c0 8.832-7.168 16-16 16s-16-7.168-16-16v-195.52c0-8.832 7.168-16 16-16s16 7.168 16 16zM832 357.344v195.52c0 8.832-7.168 16-16 16s-16-7.168-16-16v-195.52c0-8.832 7.168-16 16-16s16 7.168 16 16z" />
<glyph unicode="&#xe921;" glyph-name="cart2" horiz-adv-x="1088" d="M976.544 229.92h-610.304c-21.472 0-40.512 14.464-46.24 35.168l-170.688 614.464c-1.92 6.912-8.256 11.712-15.392 11.712h-122.656c-8.832 0-16 7.168-16 16s7.168 16 16 16h122.656c21.472 0 40.512-14.464 46.24-35.168l170.688-614.464c1.92-6.912 8.256-11.712 15.392-11.712h610.304c7.744 0 14.368 5.536 15.744 13.152l61.856 340.128c1.152 6.432-1.664 10.976-3.456 13.12s-5.792 5.76-12.288 5.76h-584.608c-8.832 0-16 7.168-16 16s7.168 16 16 16h584.608c14.272 0 27.712-6.272 36.864-17.248 9.152-10.944 12.928-25.312 10.368-39.328l-61.856-340.128c-4.16-22.88-24-39.456-47.232-39.456zM415.392-64c-49.344 0-89.472 40.128-89.472 89.472s40.128 89.472 89.472 89.472 89.472-40.128 89.472-89.472-40.128-89.472-89.472-89.472zM415.392 82.976c-31.712 0-57.472-25.792-57.472-57.472s25.792-57.504 57.472-57.504 57.472 25.792 57.472 57.472-25.76 57.504-57.472 57.504zM893.024-64c-49.344 0-89.472 40.128-89.472 89.472s40.128 89.472 89.472 89.472c49.344 0 89.472-40.128 89.472-89.472s-40.128-89.472-89.472-89.472zM893.024 82.976c-31.68 0-57.472-25.792-57.472-57.472s25.792-57.504 57.472-57.504c31.712 0 57.472 25.792 57.472 57.472s-25.76 57.504-57.472 57.504zM562.368 340.128c-8.832 0-16 7.168-16 16v183.712c0 8.832 7.168 16 16 16s16-7.168 16-16v-183.712c0-8.832-7.136-16-16-16zM782.816 340.128c-8.832 0-16 7.168-16 16v183.712c0 8.832 7.168 16 16 16s16-7.168 16-16v-183.712c0-8.832-7.168-16-16-16zM985.248 892.096l-231.104 57.472c-14.432 3.68-30.080 0.448-41.792-8.736-7.072-5.504-12.32-12.832-15.392-20.928l-187.584-63.648c-19.584-6.56-29.376-24.864-29.376-45.536v-50.432c0-8.832 7.168-16 16-16s16 7.168 16 16v50.432c0 6.88 6.176 12.992 12.704 15.2l179.296 59.168v-124.768c0-8.832 7.168-16 16-16s16 7.168 16 16v142.72c0 4.96-3.072 9.568 0.832 12.608 3.936 3.072 6.24 4.064 11.072 2.912l230.944-57.472c7.136-1.824 13.152-8.192 13.152-15.552v-85.248c0-8.832 7.168-16 16-16s16 7.168 16 16v85.248c0 22.048-17.312 41.216-38.752 46.56z" />
<glyph unicode="&#xe922;" glyph-name="casper" horiz-adv-x="928" d="M832-64c54.56 0 96 43.296 96 96.48v476.992c0 255.616-221.024 461.952-486.368 449.984-247.648-11.264-441.632-214.336-441.632-462.24v-464.736c0-53.184 57.44-96.48 112-96.48s112 43.296 112 96.48v33.824c0 44.448 33.92 80.576 80 80.576s80-36.128 80-80.576v-33.824c0-53.184 41.44-96.48 96-96.48s96 43.296 96 96.48v33.824c0 44.448 33.952 80.576 80 80.576s80-36.128 80-80.576v-33.824c0-53.184 41.44-96.48 96-96.48zM656 178.848c-63.712 0-112-50.496-112-112.576v-33.824c0-35.552-27.072-64.48-64-64.48s-64 28.896-64 64.48v33.824c0 62.048-48.288 112.576-112 112.576s-112-50.496-112-112.576v-33.824c0-35.552-43.072-64.448-80-64.448s-80 28.896-80 64.48v464.736c0 230.784 180.576 419.776 411.072 430.304 248.928 11.008 452.928-180.544 452.928-418.048v-476.992c0-35.552-27.072-64.48-64-64.48s-64 28.896-64 64.48v33.824c0 62.048-48.256 112.544-112 112.544zM336 672c-52.928 0-96-43.072-96-96s43.072-96 96-96 96 43.072 96 96-43.072 96-96 96zM336 512c-35.296 0-64 28.704-64 64s28.704 64 64 64 64-28.704 64-64-28.704-64-64-64zM624 672c-52.928 0-96-43.072-96-96s43.072-96 96-96 96 43.072 96 96-43.072 96-96 96zM624 512c-35.296 0-64 28.704-64 64s28.704 64 64 64 64-28.704 64-64-28.704-64-64-64z" />
<glyph unicode="&#xe923;" glyph-name="caution" horiz-adv-x="1120" d="M697.568 865.472c-35.36 60.928-83.488 94.528-135.52 94.528s-100.192-33.6-135.552-94.528l-392.608-676.256c-35.84-62.304-39.68-127.008-10.56-177.472 27.712-48 82.080-75.616 149.248-75.744h778.912c0 0 0 0 0.032 0 67.264 0.128 121.728 27.648 149.344 75.552 28.96 50.144 25.056 114.592-10.72 176.8l-392.576 677.12zM1073.184 27.552c-21.792-37.76-66.144-59.456-121.728-59.552h-778.848c-55.392 0.096-99.68 21.888-121.568 59.744-23.264 40.32-19.392 93.344 10.56 145.472l392.576 676.192c29.408 50.688 67.712 78.592 107.872 78.592s78.464-27.904 107.84-78.592l392.576-677.024c29.92-52.032 33.824-104.832 10.72-144.832zM562.048 320c8.832 0 16 7.168 16 16v320c0 8.832-7.168 16-16 16s-16-7.168-16-16v-320c0-8.832 7.168-16 16-16zM560 240c-35.296 0-64-28.704-64-64s28.704-64 64-64 64 28.704 64 64-28.704 64-64 64zM560 144c-17.632 0-32 14.336-32 32s14.368 32 32 32 32-14.336 32-32-14.368-32-32-32z" />
<glyph unicode="&#xe924;" glyph-name="chair" horiz-adv-x="896" d="M653.024 434.368c-1.312-8.736 4.736-16.864 13.472-18.176 0.8-0.128 1.6-0.192 2.368-0.192 7.808 0 14.624 5.696 15.808 13.632l52 348.576c5.984 45.568-8.064 91.616-38.496 126.304-30.944 35.264-75.744 55.488-122.944 55.488h-250.368c-47.168 0-92-20.224-122.912-55.488-30.464-34.688-44.512-80.736-38.496-126.56l51.968-348.288c1.344-8.736 9.504-14.688 18.176-13.472 8.736 1.312 14.752 9.44 13.472 18.176l-51.904 348c-4.768 36.448 6.464 73.28 30.816 101.024 24.864 28.352 60.928 44.608 98.88 44.608h250.368c37.984 0 74.016-16.256 98.88-44.576 24.384-27.776 35.616-64.608 30.88-100.768l-51.968-348.288zM666.272-63.232c1.664-0.512 3.808-0.768 5.44-0.768 6.752 0 9.28 4.288 11.456 11.072 2.72 8.416-5.632 17.44-14.016 20.16-73.696 23.872-125.152 32.256-221.152 32.832v63.584c0 8.832-7.168 16-16 16s-16-7.168-16-16v-63.84c-96-3.456-198.816-30.72-204.64-32.544-8.416-2.688-9.056-11.68-6.4-20.096 2.688-8.416 13.6-13.056 22.112-10.4 2.208 0.672 224.768 69.472 439.2 0zM63.232 576h50.912c8.832 0 16 7.168 16 16s-7.168 16-16 16h-50.912c-17.952 0-34.496-12.64-46.56-26.208-12.608-14.176-18.496-35.904-16.192-55.104 27.904-231.68 220.288-407.68 447.52-407.68s419.616 176.64 447.52 408.32c2.304 19.2-3.584 40.256-16.192 54.464-12.032 13.568-28.608 26.208-46.56 26.208h-49.536c-8.832 0-16-7.168-16-16s7.168-16 16-16h49.536c8.672 0 16.704-8.8 22.624-15.456 6.528-7.328 9.568-19.936 8.352-30.048-25.952-215.616-204.704-379.488-415.744-379.488s-389.792 161.952-415.744 377.568c-1.216 10.112 1.824 24.96 8.352 32.32 5.888 6.624 13.92 15.104 22.624 15.104z" />
<glyph unicode="&#xe925;" glyph-name="chat" horiz-adv-x="1344" d="M1140.864 511.264c-8.448 2.624-17.408-1.984-20.096-10.4-2.656-8.416 1.984-17.408 10.4-20.096 125.056-39.84 180.832-99.264 180.832-192.768 0-83.168-75.872-147.712-121.056-178.816-4.352-3.008-6.944-7.904-6.944-13.184v-122.336c-23.36 8.704-64.096 28.48-100.032 68.96-3.744 4.192-9.44 6.112-14.976 5.088-9.12-1.76-18.432-4.256-27.872-6.784-16.32-4.384-33.152-8.928-49.12-8.928-82.176 0-139.712 17.664-198.528 60.896-7.168 5.248-17.12 3.68-22.368-3.424-5.248-7.136-3.712-17.12 3.392-22.368 64.864-47.68 127.872-67.104 217.504-67.104 20.192 0 39.136 5.088 57.44 10.016 5.696 1.568 11.36 3.104 16.96 4.416 59.808-63.168 127.456-77.536 130.4-78.112 1.056-0.224 2.112-0.32 3.2-0.32 3.648 0 7.264 1.248 10.112 3.616 3.744 3.040 5.888 7.584 5.888 12.384v135.648c82.624 58.912 128 129.824 128 200.352 0 108.192-64.544 179.136-203.136 223.264zM1056 528c0 246.272-224.576 432-522.336 432-299.264 0-533.664-189.792-533.664-432.064 0-145.248 102.752-249.312 192-312.288v-212.352c0-5.44 2.752-10.464 7.296-13.44 2.656-1.696 5.664-2.56 8.704-2.56 2.208 0 4.448 0.48 6.56 1.408 4.672 2.080 113.888 51.712 207.328 153.888 40.48-7.52 86.272-14.752 127.808-14.752 302.816 0 506.304 160.832 506.304 400.16zM549.664 159.84c-41.92 0-89.568 8.032-130.656 15.872-5.536 0.992-11.232-0.896-14.976-5.088-65.6-73.984-142.688-120.992-180.032-141.248v194.624c0 5.28-2.592 10.176-6.944 13.184-84.416 58.080-185.056 155.616-185.056 290.752 0 224.352 220.352 400.064 501.664 400.064 279.552 0 490.336-171.968 490.336-400 0-220.224-190.624-368.16-474.336-368.16zM528 592c-35.296 0-64-28.704-64-64s28.704-64 64-64 64 28.704 64 64-28.704 64-64 64zM528 496c-17.632 0-32 14.336-32 32s14.368 32 32 32 32-14.336 32-32-14.368-32-32-32zM752 592c-35.296 0-64-28.704-64-64s28.704-64 64-64 64 28.704 64 64-28.704 64-64 64zM752 496c-17.632 0-32 14.336-32 32s14.368 32 32 32 32-14.336 32-32-14.368-32-32-32zM304 588.96c-35.296 0-64-28.704-64-64s28.704-64 64-64 64 28.704 64 64-28.704 64-64 64zM304 492.96c-17.632 0-32 14.336-32 32s14.368 32 32 32 32-14.336 32-32-14.368-32-32-32z" />
<glyph unicode="&#xe926;" glyph-name="check-circle" d="M512 960c-282.304 0-512-229.696-512-512s229.696-512 512-512 512 229.696 512 512-229.696 512-512 512zM512-32c-264.672 0-480 215.328-480 480s215.328 480 480 480 480-215.328 480-480-215.328-480-480-480zM724.288 634.72l-273.44-294.688c-6.336-6.816-17.12-6.816-23.456 0l-127.616 137.536c-6.080 6.496-16.256 6.88-22.656 0.832-6.496-6.016-6.88-16.128-0.832-22.592l151.104-162.848c3.040-3.296 7.296-5.12 11.712-5.12s8.672 1.856 11.712 5.12l296.896 320c6.016 6.464 5.664 16.608-0.832 22.592-6.4 6.016-16.576 5.696-22.592-0.832z" />
<glyph unicode="&#xe927;" glyph-name="cheese" horiz-adv-x="1440" d="M1424 624c-8.832 0-16 7.168-16 16v32c0 175.968-112.672 219.072-180 244.768l-9.632 3.712c-21.248 8.256-44.672 9.696-67.84 4.32l-1066.848-251.584c-8.576-2.144-17.216 3.328-19.264 11.872-2.016 8.64 3.328 17.216 11.904 19.264l1066.848 251.584c29.472 6.976 59.488 5.024 86.784-5.632l9.44-3.616c70.112-26.816 200.608-76.672 200.608-274.688v-32c0-8.832-7.168-16-16-16zM1376-64h-1312c-35.296 0-64 28.704-64 64v41.792c0 10.016 10.144 17.696 19.488 15.616 4.064-0.416 15.872-0.864 19.072-0.864 58.624 0 112 48.576 112 101.888 0 54.272-50.752 101.888-108.608 101.888-3.328 0-18.112-0.512-22.656-0.896-9.6-1.984-19.296 5.664-19.296 15.616v364.96c0 35.296 28.704 64 64 64h1312c35.296 0 64-28.704 64-64v-640c0-35.296-28.704-64-64-64zM32 24.576v-24.576c0-17.664 14.368-32 32-32h1312c17.632 0 32 14.336 32 32v640c0 17.664-14.368 32-32 32h-1312c-17.632 0-32-14.336-32-32v-347.744c3.104 0.032 6.4 0.032 9.92 0.032 76.224 0 140.608-61.312 140.608-133.888 0-71.328-67.296-133.888-144-133.888-2.24 0.032-4.416 0.032-6.528 0.064zM559.936 37.12c-87.872 0-159.328 71.456-159.328 159.328s71.488 159.328 159.328 159.328c87.872 0 159.36-71.456 159.36-159.328s-71.488-159.328-159.36-159.328zM559.936 323.808c-70.208 0-127.328-57.12-127.328-127.328s57.12-127.328 127.328-127.328 127.36 57.12 127.36 127.328-57.152 127.328-127.36 127.328zM358.72 438.112c-42.88 0-77.792 34.912-77.792 77.792 0 42.912 34.912 77.824 77.792 77.824s77.792-34.912 77.792-77.824c0-42.88-34.912-77.792-77.792-77.792zM358.72 561.728c-25.248 0-45.792-20.576-45.792-45.824s20.544-45.792 45.792-45.792 45.792 20.544 45.792 45.792-20.544 45.824-45.792 45.824zM831.040 379.968c-32.8 0-59.488 26.688-59.488 59.488 0 32.768 26.688 59.456 59.488 59.456s59.488-26.688 59.488-59.456c0-32.8-26.688-59.488-59.488-59.488zM831.040 466.944c-15.168 0-27.488-12.32-27.488-27.456s12.352-27.488 27.488-27.488 27.488 12.352 27.488 27.488-12.32 27.456-27.488 27.456zM1004.48 95.264c-42.88 0-77.792 34.912-77.792 77.792 0 42.912 34.912 77.824 77.792 77.824s77.792-34.912 77.792-77.824c0-42.912-34.912-77.792-77.792-77.792zM1004.48 218.848c-25.248 0-45.792-20.576-45.792-45.824s20.544-45.792 45.792-45.792 45.792 20.544 45.792 45.792-20.544 45.824-45.792 45.824zM1188.864 364.032c-57.632 0-104.544 46.912-104.544 104.544 0 57.664 46.88 104.576 104.544 104.576s104.544-46.912 104.544-104.576c0-57.632-46.88-104.544-104.544-104.544zM1188.864 541.12c-40 0-72.544-32.576-72.544-72.576s32.544-72.544 72.544-72.544 72.544 32.544 72.544 72.544-32.544 72.576-72.544 72.576z" />
<glyph unicode="&#xe928;" glyph-name="circle-compass" horiz-adv-x="736" d="M368.448 768c8.832 0 16 7.168 16 16v48h15.552c8.832 0 16 7.168 16 16v96c0 8.832-7.168 16-16 16h-64c-8.832 0-16-7.168-16-16v-96c0-8.832 7.168-16 16-16h16.448v-48c0-8.832 7.136-16 16-16zM352 928h32v-64h-32v64zM8.576-58.144c2.368-1.248 4.896-1.856 7.424-1.856 5.76 0 11.328 3.136 14.144 8.576l137.344 261.536c61.6-30.944 129.888-47.68 200.928-47.68 70.848 0 139.008 16.672 200.48 47.456l136.896-261.312c2.88-5.44 8.448-8.576 14.176-8.576 2.496 0 5.056 0.608 7.424 1.824 7.808 4.128 10.848 13.792 6.752 21.632l-137.216 261.92c31.712 18.88 61.504 41.344 88.256 68.096 31.2 31.2 31.2 81.952 0 113.12-30.24 30.24-83.008 30.176-113.12 0-15.136-15.136-31.808-28.16-49.44-39.36l-75.456 144.032c29.216 23.328 48.352 58.784 48.352 98.976 0 70.080-57.024 127.136-127.136 127.136s-127.040-57.056-127.040-127.168c0-40.16 19.072-75.584 48.224-98.912l-75.616-143.936c-17.536 11.2-34.112 24.16-49.152 39.2-30.24 30.24-83.008 30.176-113.12 0-31.2-31.2-31.2-81.952 0-113.12 26.624-26.624 56.288-49.024 87.84-67.84l-137.664-262.144c-4.128-7.84-1.12-17.504 6.72-21.6zM108.224 398.016c12.832 0 24.896-4.992 33.984-14.048 60.352-60.352 140.672-93.568 226.24-93.568s165.952 33.216 226.304 93.568c18.112 18.144 49.76 18.080 67.872 0 18.72-18.72 18.72-49.152 0-67.872-78.464-78.432-182.976-121.664-294.176-121.664-111.264 0-215.68 43.232-294.112 121.664-18.72 18.72-18.72 49.152 0 67.872 9.024 9.024 21.056 14.048 33.888 14.048zM273.344 610.208c0 52.448 42.656 95.136 95.104 95.136s95.136-42.688 95.136-95.136-42.688-95.136-95.136-95.136-95.104 42.72-95.104 95.136zM316.768 494.304c15.808-7.072 33.248-11.232 51.68-11.232 18.368 0 35.744 4.096 51.52 11.136l74.72-142.624c-38.848-18.944-81.696-29.248-126.24-29.248-44.672 0-87.616 10.336-126.528 29.376l74.848 142.592z" />
<glyph unicode="&#xe929;" glyph-name="clipboard" horiz-adv-x="896" d="M48-64h800c27.808 0 48 20.192 48 48v896c0 27.808-20.192 48-48 48h-128c-8.832 0-16-7.168-16-16s7.168-16 16-16h128c10.016 0 16-5.984 16-16v-896c0-10.016-5.984-16-16-16h-800c-10.016 0-16 5.984-16 16v896c0 10.016 5.984 16 16 16h128c8.832 0 16 7.168 16 16s-7.168 16-16 16h-128c-27.808 0-48-20.192-48-48v-896c0-27.808 20.192-48 48-48zM176 800c8.832 0 16 7.168 16 16s-7.168 16-16 16h-64c-8.832 0-16-7.168-16-16v-768c0-8.832 7.168-16 16-16h672c8.832 0 16 7.168 16 16v768c0 8.832-7.168 16-16 16h-64c-8.832 0-16-7.168-16-16s7.168-16 16-16h48v-736h-640v736h48zM288 736h320c38.88 0 64 25.12 64 64v144c0 8.832-7.168 16-16 16h-416c-8.832 0-16-7.168-16-16v-144c0-38.88 25.12-64 64-64zM256 928h384v-128c0-21.248-10.784-32-32-32h-320c-21.216 0-32 10.752-32 32v128zM272 448h352c8.832 0 16 7.168 16 16s-7.168 16-16 16h-352c-8.832 0-16-7.168-16-16s7.168-16 16-16zM272 576h352c8.832 0 16 7.168 16 16s-7.168 16-16 16h-352c-8.832 0-16-7.168-16-16s7.168-16 16-16zM272 320h352c8.832 0 16 7.168 16 16s-7.168 16-16 16h-352c-8.832 0-16-7.168-16-16s7.168-16 16-16zM272 192h352c8.832 0 16 7.168 16 16s-7.168 16-16 16h-352c-8.832 0-16-7.168-16-16s7.168-16 16-16z" />
<glyph unicode="&#xe92a;" glyph-name="clock" d="M512-64c282.304 0 512 229.696 512 512s-229.696 512-512 512-512-229.696-512-512 229.696-512 512-512zM512 928c264.672 0 480-215.328 480-480s-215.328-480-480-480-480 215.328-480 480 215.328 480 480 480zM641.952 263.424c3.136-3.136 7.232-4.672 11.328-4.672s8.192 1.568 11.328 4.672c6.24 6.24 6.24 16.384 0 22.624l-152.608 152.576v223.168c0 8.832-7.168 16-16 16s-16-7.168-16-16v-229.792c0-4.256 1.696-8.32 4.672-11.328l157.28-157.248zM160 448c0-17.673-14.327-32-32-32s-32 14.327-32 32c0 17.673 14.327 32 32 32s32-14.327 32-32zM928 448c0-17.673-14.327-32-32-32s-32 14.327-32 32c0 17.673 14.327 32 32 32s32-14.327 32-32zM544 832c0-17.673-14.327-32-32-32s-32 14.327-32 32c0 17.673 14.327 32 32 32s32-14.327 32-32zM544 64c0-17.673-14.327-32-32-32s-32 14.327-32 32c0 17.673 14.327 32 32 32s32-14.327 32-32zM288 704c0-17.673-14.327-32-32-32s-32 14.327-32 32c0 17.673 14.327 32 32 32s32-14.327 32-32zM800 192c0-17.673-14.327-32-32-32s-32 14.327-32 32c0 17.673 14.327 32 32 32s32-14.327 32-32zM832 704c0-17.673-14.327-32-32-32s-32 14.327-32 32c0 17.673 14.327 32 32 32s32-14.327 32-32zM288 192c0-17.673-14.327-32-32-32s-32 14.327-32 32c0 17.673 14.327 32 32 32s32-14.327 32-32z" />
<glyph unicode="&#xe92b;" glyph-name="clock2" horiz-adv-x="608" d="M0 447.36c0-167.616 136.384-304 304-304s304 136.384 304 304-136.384 304-304 304-304-136.352-304-304zM304 719.36c149.984 0 272-122.016 272-272s-122.016-272-272-272-272 122.016-272 272 122.016 272 272 272zM144 128c-8.832 0-16-7.168-16-16v-15.136c0-88.704 71.776-160.864 160-160.864s160 72.16 160 160.864v15.136c0 8.832-7.168 16-16 16s-16-7.168-16-16v-15.136c0-71.040-57.408-128.864-128-128.864s-128 57.824-128 128.864v15.136c0 8.832-7.168 16-16 16zM431.328 768c8.544-0.704 16.16 6.816 16.352 15.648l0.32 16.288c0 88.256-71.776 160.064-160 160.064s-160-71.808-160-160.064v-15.936c0-8.832 7.168-16 16-16s16 7.168 16 16v15.936c0 70.624 57.408 128.064 128 128.064s128-57.44 128-127.744l-0.352-15.936c-0.192-8.8 6.816-16.128 15.68-16.32zM296.64 433.184l128-66.368c2.336-1.216 4.864-1.792 7.328-1.792 5.792 0 11.36 3.136 14.208 8.64 4.064 7.84 0.992 17.504-6.848 21.568l-119.328 61.888v147.904c0 8.832-7.168 16-16 16s-16-7.168-16-16v-157.632c0-5.984 3.328-11.456 8.64-14.208z" />
<glyph unicode="&#xe92c;" glyph-name="cloud" horiz-adv-x="1344" d="M1086.656 544.384c-13.664 211.584-160.8 415.616-430.656 415.616-246.816 0-437.152-183.456-447.232-428.288-135.040-42.016-208.768-186.528-208.768-291.712 0-161.952 134.592-304 288-304h768c155.104 0 288 167.168 288 304 0 165.344-135.136 294.656-257.344 304.384zM1056-32h-768c-136.384 0-256 127.104-256 272 0 97.632 85.568 272 256 272h48c8.832 0 16 7.168 16 16s-7.168 16-16 16h-48c-16.288 0-31.68-1.824-46.688-4.448 12.544 191.68 158.24 388.448 414.688 388.448 274.816 0 400-215.648 400-416v-48c0-8.832 7.168-16 16-16s16 7.168 16 16v48c0 0.096 0 0.192 0 0.288 96.608-10.592 224-114.272 224-272.288 0-122.432-118.112-272-256-272z" />
<glyph unicode="&#xe92d;" glyph-name="color-plate" horiz-adv-x="1088" d="M346.624 776.48c-44.096 0-80-35.904-80-80s35.904-80 80-80 80 35.904 80 80-35.904 80-80 80zM346.624 648.48c-26.464 0-48 21.536-48 48s21.536 48 48 48 48-21.536 48-48-21.536-48-48-48zM687.168 664.128c0 44.096-35.904 80-80 80s-80-35.904-80-80 35.904-80 80-80 80 35.872 80 80zM559.168 664.128c0 26.464 21.536 48 48 48s48-21.536 48-48-21.536-48-48-48-48 21.536-48 48zM731.744 525.024c-44.096 0-80-35.904-80-80s35.904-80 80-80 80 35.904 80 80-35.904 80-80 80zM731.744 397.024c-26.464 0-48 21.536-48 48s21.536 48 48 48 48-21.536 48-48-21.536-48-48-48zM652.384 286.496c-52.928 0-96-43.072-96-96s43.072-96 96-96 96 43.072 96 96-43.040 96-96 96zM652.384 126.496c-35.296 0-64 28.704-64 64s28.704 64 64 64 64-28.704 64-64-28.704-64-64-64zM544 960c-299.968 0-544-247.328-544-551.296 0-149.6 58.144-291.744 159.52-390.016 30.368-29.44 60.896-44.992 88.352-44.992 24.896 0 45.696 12.864 57.056 35.296 17.792 35.136 8.768 85.792-22.976 129.056-15.456 21.024-19.648 46.048-10.688 63.712 6.336 12.48 18.592 19.36 34.496 19.36 18.592 0 70.016-10.368 145.568-106.304 116.352-147.776 224.96-178.816 295.616-178.816 59.328 0 116.448 22.304 160.864 62.784 114.496 104.48 180.192 253.888 180.192 409.92 0 303.968-244.032 551.296-544 551.296zM886.24 22.464c-38.496-35.136-87.968-54.464-139.296-54.464-63.552 0-162.048 28.896-270.496 166.624-60.192 76.448-120.8 118.528-170.72 118.528-28.192 0-51.168-13.44-63.040-36.928-14.56-28.736-9.408-65.952 13.44-97.088 28.064-38.24 30.4-75.616 20.224-95.68-4.096-8.096-12.352-17.76-28.48-17.76-18.688 0-42.144 12.768-66.048 35.968-95.232 92.288-149.824 226.048-149.824 367.040 0 286.336 229.696 519.296 512 519.296s512-232.96 512-519.296c0-147.072-61.888-287.84-169.76-386.24z" />
<glyph unicode="&#xe92e;" glyph-name="compass" d="M0 448c0-282.304 229.696-512 512-512s512 229.696 512 512-229.696 512-512 512-512-229.696-512-512zM512 928c264.672 0 480-215.328 480-480s-215.328-480-480-480-480 215.328-480 480 215.328 480 480 480zM512 32c229.376 0 416 186.624 416 416s-186.624 416-416 416-416-186.624-416-416 186.624-416 416-416zM480 830.368v-48.832c0-8.832 7.168-16 16-16s16 7.168 16 16v50.464c200.928 0 366.016-155.2 382.368-352h-48.864c-8.832 0-16-7.168-16-16s7.168-16 16-16h50.496c0-211.744-172.256-384-384-384v50.464c0 8.832-7.168 16-16 16s-16-7.168-16-16v-48.832c-196.768 16.352-352 181.408-352 382.368h50.496c8.832 0 16 7.168 16 16s-7.168 16-16 16h-48.864c15.456 186.208 164.16 334.912 350.368 350.368zM300.352 222.688c3.264 0 6.528 0.992 9.344 3.008l179.648 129.152c7.296-1.792 14.816-2.976 22.656-2.976 52.928 0 96 43.072 96 96 0 7.584-1.12 14.88-2.784 21.984l131.392 182.784c4.576 6.368 3.872 15.136-1.664 20.672-5.504 5.536-14.272 6.176-20.672 1.696l-184.896-132.896c-5.664 1.056-11.456 1.76-17.408 1.76-52.928 0-96-43.072-96-96 0-6.24 0.704-12.352 1.856-18.272l-130.464-181.568c-4.576-6.368-3.872-15.136 1.664-20.672 3.104-3.072 7.2-4.672 11.328-4.672zM448 447.84c0 35.296 28.704 64 64 64s64-28.704 64-64-28.704-64-64-64-64 28.736-64 64zM653.568 591.904l-63.584-88.48c-6.912 9.632-15.424 18.016-25.344 24.544l88.928 63.936zM432.16 394.656c6.368-9.536 14.528-17.696 23.776-24.416l-85.504-61.472 61.728 85.888z" />
<glyph unicode="&#xe92f;" glyph-name="cross1" d="M512 960c-136.768 0-265.344-53.248-362.016-149.984-96.704-96.672-149.984-225.28-149.984-362.016s53.28-265.344 149.984-362.016c96.672-96.736 225.248-149.984 362.016-149.984s265.344 53.248 362.016 149.984c96.704 96.672 149.984 225.28 149.984 362.016s-53.28 265.344-149.984 362.016c-96.672 96.736-225.248 149.984-362.016 149.984zM851.392 108.608c-90.656-90.656-211.168-140.608-339.392-140.608s-248.736 49.952-339.392 140.608-140.608 211.168-140.608 339.392 49.952 248.736 140.608 339.392 211.168 140.608 339.392 140.608 248.736-49.952 339.392-140.608 140.608-211.168 140.608-339.392-49.952-248.736-140.608-339.392zM704.32 640.352c-6.24 6.24-16.384 6.24-22.624 0l-169.696-169.728-169.696 169.728c-6.24 6.24-16.384 6.24-22.624 0s-6.24-16.384 0-22.624l169.696-169.728-169.696-169.728c-6.24-6.24-6.24-16.384 0-22.624 3.136-3.136 7.232-4.672 11.328-4.672s8.192 1.568 11.328 4.672l169.664 169.728 169.696-169.728c3.136-3.136 7.232-4.672 11.328-4.672s8.192 1.568 11.328 4.672c6.24 6.24 6.24 16.384 0 22.624l-169.728 169.728 169.696 169.728c6.272 6.24 6.272 16.352 0 22.624z" />
<glyph unicode="&#xe930;" glyph-name="cross2" d="M512 960c-282.304 0-512-229.696-512-512s229.696-512 512-512 512 229.696 512 512-229.696 512-512 512zM512-32c-264.672 0-480 215.328-480 480s215.328 480 480 480 480-215.328 480-480-215.328-480-480-480zM565.024 417.6c-6.24 6.24-16.384 6.24-22.624 0s-6.24-16.384 0-22.624l135.776-135.744c3.136-3.136 7.232-4.672 11.328-4.672s8.192 1.568 11.328 4.672c6.24 6.24 6.24 16.384 0 22.624l-135.808 135.744zM345.856 636.768c-6.24 6.24-16.384 6.24-22.624 0s-6.24-16.384 0-22.624l135.776-135.744c3.136-3.136 7.232-4.672 11.328-4.672s8.192 1.568 11.328 4.672c6.24 6.24 6.24 16.384 0 22.624l-135.808 135.744zM458.976 417.6l-135.776-135.744c-6.24-6.24-6.24-16.384 0-22.624 3.136-3.136 7.232-4.672 11.328-4.672s8.192 1.568 11.328 4.672l135.776 135.744c6.24 6.24 6.24 16.384 0 22.624s-16.384 6.24-22.656 0zM678.144 636.768l-135.776-135.744c-6.24-6.24-6.24-16.384 0-22.624 3.136-3.136 7.232-4.672 11.328-4.672s8.192 1.568 11.328 4.672l135.776 135.744c6.24 6.24 6.24 16.384 0 22.624s-16.384 6.272-22.656 0z" />
<glyph unicode="&#xe931;" glyph-name="database" horiz-adv-x="1120" d="M640 16c0 44.096-35.904 80-80 80s-80-35.904-80-80 35.904-80 80-80 80 35.904 80 80zM512 16c0 26.464 21.536 48 48 48s48-21.536 48-48-21.536-48-48-48-48 21.536-48 48zM1056 16c0 8.832-7.168 16-16 16h-320c-8.832 0-16-7.168-16-16s7.168-16 16-16h320c8.832 0 16 7.168 16 16zM400 32h-320c-8.832 0-16-7.168-16-16s7.168-16 16-16h320c8.832 0 16 7.168 16 16s-7.168 16-16 16zM0 816c0-79.392 66.784-144 148.864-144h822.272c82.080 0 148.864 64.608 148.864 144s-66.784 144-148.864 144h-822.272c-82.080 0-148.864-64.608-148.864-144zM148.864 928h822.272c64.448 0 116.864-50.24 116.864-112s-52.416-112-116.864-112h-822.272c-64.448 0-116.864 50.24-116.864 112s52.416 112 116.864 112zM154.976 749.152c35.296 0 64 28.704 64 64s-28.704 64-64 64-64-28.704-64-64 28.704-64 64-64zM154.976 845.152c17.632 0 32-14.368 32-32s-14.368-32-32-32-32 14.368-32 32 14.368 32 32 32zM705.568 800h224c8.832 0 16 7.168 16 16s-7.168 16-16 16h-224c-8.832 0-16-7.168-16-16s7.136-16 16-16zM148.864 256h395.136v-108.736c0-8.832 7.168-16 16-16s16 7.168 16 16v108.736h395.136c82.080 0 148.864 64.608 148.864 144s-66.784 144-148.864 144h-822.272c-82.080 0-148.864-64.608-148.864-144s66.784-144 148.864-144zM148.864 512h822.272c64.448 0 116.864-50.24 116.864-112s-52.416-112-116.864-112h-822.272c-64.448 0-116.864 50.24-116.864 112s52.416 112 116.864 112zM154.976 338.016c35.296 0 64 28.704 64 64s-28.704 64-64 64-64-28.704-64-64 28.704-64 64-64zM154.976 434.016c17.632 0 32-14.368 32-32s-14.368-32-32-32-32 14.368-32 32 14.368 32 32 32zM705.568 384h224c8.832 0 16 7.168 16 16s-7.168 16-16 16h-224c-8.832 0-16-7.168-16-16s7.136-16 16-16z" />
<glyph unicode="&#xe932;" glyph-name="desktop" horiz-adv-x="1248" d="M48 160h560v-48c0-8.832 7.168-16 16-16s16 7.168 16 16v48h560c26.464 0 48 21.536 48 48v704c0 26.464-21.536 48-48 48h-1152c-26.464 0-48-21.536-48-48v-704c0-26.464 21.536-48 48-48zM32 912c0 8.832 7.168 16 16 16h1152c8.832 0 16-7.168 16-16v-704c0-8.832-7.168-16-16-16h-1152c-8.832 0-16 7.168-16 16v704zM112 256h1024c8.832 0 16 7.168 16 16v576c0 8.832-7.168 16-16 16h-1024c-8.832 0-16-7.168-16-16v-576c0-8.832 7.168-16 16-16zM128 832h992v-544h-992v544zM448 64c-36.48 0-64-27.52-64-64v-48c0-8.832 7.168-16 16-16h448c8.832 0 16 7.168 16 16v45.6c0 37.216-28.096 66.4-64 66.4h-352zM832-2.4v-29.6h-416v32c0 18.848 13.152 32 32 32h352c18.24 0 32-14.784 32-34.4z" />
<glyph unicode="&#xe933;" glyph-name="dial" d="M511.968 608c-87.328 0-159.072-71.040-159.968-158.368-0.896-88.224 70.144-160.704 158.368-161.632 0.032 0 1.6 0 1.664 0 87.328 0 159.072 71.040 159.968 158.368 0.896 88.224-70.144 160.736-160.032 161.632zM512.032 320v-16l-1.344 16c-70.56 0.704-127.392 58.72-126.688 129.312 0.704 69.856 58.112 126.688 129.312 126.688 70.56-0.704 127.392-58.72 126.688-129.312-0.704-69.856-58.112-126.688-127.968-126.688zM64 448c0-17.673-14.327-32-32-32s-32 14.327-32 32c0 17.673 14.327 32 32 32s32-14.327 32-32zM1024 448c0-17.673-14.327-32-32-32s-32 14.327-32 32c0 17.673 14.327 32 32 32s32-14.327 32-32zM544 928c0-17.673-14.327-32-32-32s-32 14.327-32 32c0 17.673 14.327 32 32 32s32-14.327 32-32zM544-32c0-17.673-14.327-32-32-32s-32 14.327-32 32c0 17.673 14.327 32 32 32s32-14.327 32-32zM192 800c0-17.673-14.327-32-32-32s-32 14.327-32 32c0 17.673 14.327 32 32 32s32-14.327 32-32zM896 96c0-17.673-14.327-32-32-32s-32 14.327-32 32c0 17.673 14.327 32 32 32s32-14.327 32-32zM896 800c0-17.673-14.327-32-32-32s-32 14.327-32 32c0 17.673 14.327 32 32 32s32-14.327 32-32zM192 96c0-17.673-14.327-32-32-32s-32 14.327-32 32c0 17.673 14.327 32 32 32s32-14.327 32-32zM768 445.568v242.432c0 8.832-7.168 16-16 16h-240.032c-139.712 0-254.528-113.664-255.968-253.408-0.672-68.384 25.28-132.928 73.152-181.792s111.872-76.128 180.256-76.8c0.032 0 2.592 0 2.656 0 0 0 0 0 0 0 139.68 0 254.496 113.664 255.936 253.568zM512.032 224v-16l-2.304 16c-59.84 0.608-115.84 24.48-157.728 67.232s-64.608 99.232-64 159.072c1.248 122.24 101.696 221.696 226.432 221.696v0h221.568v-226.272c-1.248-122.272-101.728-221.76-223.968-221.728z" />
<glyph unicode="&#xe934;" glyph-name="dislike" horiz-adv-x="992" d="M540.352-64c-63.52 0-115.2 51.68-115.2 115.2v126.656l-123.936 154.944h-58.464c-8.832 0-16 7.168-16 16s7.168 16 16 16h66.144c4.864 0 9.44-2.208 12.512-6.016l132.256-165.344c2.272-2.848 3.488-6.368 3.488-9.984v-132.256c0-45.888 37.312-83.2 83.2-83.2s83.2 37.344 83.2 83.2c0 8.832 7.168 16 16 16s16-7.168 16-16c0-63.52-51.68-115.2-115.2-115.2zM639.552 35.2c-8.832 0-16 7.168-16 16v297.6c0 7.744 5.536 15.392 13.152 16.768l259.552 46.816c22.88 4.128 42.464 17.152 55.072 36.672 12.64 19.52 16.512 42.688 10.912 65.28l-87.072 350.528c-9.248 37.152-42.464 63.136-80.768 63.136h-251.84l-229.28-65.536c-1.408-0.416-2.912-0.608-4.384-0.608h-66.144c-8.832 0-16 7.168-16 16s7.168 16 16 16h63.904l229.312 65.536c1.408 0.416 2.88 0.608 4.384 0.608h254.048c53.056 0 99.040-35.968 111.808-87.424l87.072-350.528c7.744-31.264 2.4-63.328-15.104-90.368-17.472-27.008-44.576-45.056-76.256-50.752l-246.4-44.448v-285.28c0.032-8.832-7.136-16-15.968-16zM77.408 299.744c-45.312 0-82.144 36.832-82.144 82.112v496c0.032 45.312 36.864 82.144 82.144 82.144s82.112-36.832 82.112-82.144v-496c0.032-45.28-36.832-82.112-82.112-82.112zM77.408 928c-27.616 0-50.112-22.496-50.112-50.144v-496c0-27.648 22.496-50.112 50.144-50.112s50.112 22.496 50.112 50.112v496c0 27.648-22.496 50.144-50.144 50.144z" />
<glyph unicode="&#xe935;" glyph-name="document" horiz-adv-x="768" d="M48-64h672c26.464 0 48 21.536 48 48v672c0 0.544-0.256 0.992-0.288 1.504-0.064 0.736-0.256 1.376-0.416 2.080-0.544 2.272-1.472 4.32-2.88 6.112-0.224 0.288-0.192 0.64-0.416 0.928l-256 288c-0.096 0.096-0.224 0.096-0.32 0.192-1.92 2.048-4.352 3.456-7.136 4.288-0.608 0.192-1.152 0.256-1.792 0.352-0.928 0.16-1.792 0.544-2.752 0.544h-448c-26.464 0-48-21.536-48-48v-928c0-26.464 21.536-48 48-48zM512 901.92l204.384-229.92h-188.384c-7.040 0-16 13.44-16 24v205.92zM32 912c0 8.832 7.2 16 16 16h432v-232c0-25.888 20.96-56 48-56h208v-656c0-8.832-7.2-16-16-16h-672c-8.96 0-16 7.040-16 16v928zM176 512h416c8.832 0 16 7.168 16 16s-7.168 16-16 16h-416c-8.832 0-16-7.168-16-16s7.168-16 16-16zM176 384h416c8.832 0 16 7.168 16 16s-7.168 16-16 16h-416c-8.832 0-16-7.168-16-16s7.168-16 16-16zM176 640h192c8.832 0 16 7.168 16 16s-7.168 16-16 16h-192c-8.832 0-16-7.168-16-16s7.168-16 16-16zM176 256h416c8.832 0 16 7.168 16 16s-7.168 16-16 16h-416c-8.832 0-16-7.168-16-16s7.168-16 16-16zM176 128h416c8.832 0 16 7.168 16 16s-7.168 16-16 16h-416c-8.832 0-16-7.168-16-16s7.168-16 16-16z" />
<glyph unicode="&#xe936;" glyph-name="documents" horiz-adv-x="1088" d="M48.384 64h575.616c26.464 0 48 21.536 48 48v608c0 0.736-0.32 1.376-0.416 2.080s-0.224 1.312-0.416 1.984c-0.736 2.752-1.92 5.312-3.904 7.264l-223.968 223.968c-1.952 1.952-4.512 3.136-7.264 3.904-0.672 0.192-1.28 0.32-1.984 0.416-0.672 0.064-1.312 0.384-2.048 0.384h-383.808c-26.56 0-48.192-21.536-48.192-48v-800c0-26.464 21.696-48 48.384-48zM448 905.376l169.376-169.376h-153.376c-8.8 0-16 7.168-16 16v153.376zM32 912c0 8.832 7.264 16 16.192 16h367.808v-176c0-26.464 21.536-48 48-48h176v-592c0-8.832-7.2-16-16-16h-575.616c-9.056 0-16.384 7.168-16.384 16v800zM144 576h384c8.832 0 16 7.168 16 16s-7.168 16-16 16h-384c-8.832 0-16-7.168-16-16s7.168-16 16-16zM144 448h384c8.832 0 16 7.168 16 16s-7.168 16-16 16h-384c-8.832 0-16-7.168-16-16s7.168-16 16-16zM144 704h160c8.832 0 16 7.168 16 16s-7.168 16-16 16h-160c-8.832 0-16-7.168-16-16s7.168-16 16-16zM144 320h384c8.832 0 16 7.168 16 16s-7.168 16-16 16h-384c-8.832 0-16-7.168-16-16s7.168-16 16-16zM144 192h384c8.832 0 16 7.168 16 16s-7.168 16-16 16h-384c-8.832 0-16-7.168-16-16s7.168-16 16-16zM688 800h144v-176c0-26.464 21.536-48 48-48h176v-592c0-8.832-7.2-16-16-16h-575.616c-9.056 0-16.384 7.168-16.384 16v32c0 8.832-7.168 16-16 16s-16-7.168-16-16v-32c0-26.464 21.696-48 48.384-48h575.616c26.464 0 48 21.536 48 48v608c0 0.736-0.32 1.376-0.416 2.080s-0.224 1.312-0.416 1.984c-0.736 2.752-1.92 5.312-3.904 7.264l-223.968 223.968c-1.952 1.984-4.544 3.168-7.296 3.904-0.672 0.192-1.248 0.288-1.952 0.384-0.672 0.096-1.312 0.416-2.048 0.416h-160c-8.832 0-16-7.168-16-16s7.168-16 16-16zM880 608c-8.8 0-16 7.168-16 16v153.376l169.376-169.376h-153.376zM752 448h192c8.832 0 16 7.168 16 16s-7.168 16-16 16h-192c-8.832 0-16-7.168-16-16s7.168-16 16-16zM752 320h192c8.832 0 16 7.168 16 16s-7.168 16-16 16h-192c-8.832 0-16-7.168-16-16s7.168-16 16-16zM752 192h192c8.832 0 16 7.168 16 16s-7.168 16-16 16h-192c-8.832 0-16-7.168-16-16s7.168-16 16-16zM752 64h192c8.832 0 16 7.168 16 16s-7.168 16-16 16h-192c-8.832 0-16-7.168-16-16s7.168-16 16-16z" />
<glyph unicode="&#xe937;" glyph-name="download" horiz-adv-x="1344" d="M1086.656 544.576c-13.76 211.52-160.864 415.424-430.656 415.424-32.928 0-65.408-3.2-96.576-9.504-8.672-1.76-14.24-10.176-12.512-18.88 1.76-8.672 10.048-14.24 18.88-12.512 29.056 5.92 59.424 8.896 90.208 8.896 274.816 0 400-215.648 400-416v-48c0-8.832 7.168-16 16-16s16 7.168 16 16v48c0 0.16-0.032 0.352-0.032 0.512 98.016-8.448 224.032-93.824 224.032-272.512 0-152.544-112.448-272-256-272h-768c-127.232 0-256 93.44-256 272 0 131.008 80.128 272 256 272h48c8.832 0 16 7.168 16 16s-7.168 16-16 16h-48v64c0 119.264 73.568 193.344 192 193.344 107.648 0 192-84.928 192-193.344v-415.776l-133.12 123.52c-6.4 6.016-16.544 5.664-22.592-0.832-6.016-6.464-5.664-16.608 0.832-22.592l144.512-134.048c9.568-9.536 18.016-14.24 26.464-14.24 8.352 0 16.64 4.64 25.856 13.856l144.928 134.464c6.496 6.016 6.88 16.128 0.832 22.592-6.016 6.528-16.192 6.88-22.592 0.832l-133.12-123.552v415.776c0 126.368-98.4 225.344-224 225.344-136.064 0-224-88.448-224-225.344v-65.632c-168.16-16.256-256-160.096-256-302.368 0-147.36 100.928-304 288-304h768c161.504 0 288 133.536 288 304 0 201.728-145.824 296.896-257.344 304.576z" />
<glyph unicode="&#xe938;" glyph-name="drag1" d="M705.216 663.872l-319.936-320c-6.24-6.24-6.24-16.384 0-22.624 3.136-3.136 7.232-4.672 11.328-4.672s8.192 1.568 11.328 4.672l319.936 320c6.24 6.24 6.24 16.384 0 22.624s-16.416 6.24-22.656 0zM1008 736c8.832 0 16 7.168 16 16v192c0 2.080-0.416 4.16-1.216 6.112-1.632 3.904-4.736 7.040-8.672 8.672-1.952 0.8-4.032 1.216-6.112 1.216h-192c-8.832 0-16-7.168-16-16s7.168-16 16-16h153.376l-132.672-132.672c-0.032-0.032-0.064-0.096-0.096-0.128-6.272 2.976-13.216 4.8-20.608 4.8h-480c-26.464 0-48-21.536-48-48v-480c0-7.392 1.824-14.304 4.8-20.576l-201.6-201.6c-6.24-6.24-6.24-16.384 0-22.624 3.136-3.136 7.232-4.672 11.328-4.672s8.192 1.568 11.328 4.672l201.632 201.632c6.208-3.008 13.12-4.832 20.512-4.832h480c26.464 0 48 21.536 48 48v480c0 7.392-1.824 14.336-4.832 20.608 0.032 0.032 0.096 0.064 0.128 0.096l132.704 132.672v-153.376c0-8.832 7.168-16 16-16zM832 272c0-8.832-7.2-16-16-16h-480c-8.8 0-16 7.168-16 16v480c0 8.832 7.2 16 16 16h480c8.8 0 16-7.168 16-16v-480zM48 480h113.024c8.832 0 16 7.168 16 16s-7.136 16-16 16h-113.024c-26.464 0-48-21.536-48-48v-480c0-26.464 21.536-48 48-48h480c26.464 0 48 21.536 48 48v120.192c0 8.832-7.168 16-16 16s-16-7.168-16-16v-120.192c0-8.832-7.2-16-16-16h-480c-8.8 0-16 7.168-16 16v480c0 8.832 7.2 16 16 16z" />
<glyph unicode="&#xe939;" glyph-name="dribbble" d="M512 961.088c-282.944 0-513.088-230.144-513.088-513.088s230.144-513.088 513.088-513.088 513.088 230.144 513.088 513.088-230.144 513.088-513.088 513.088zM512-30.912c-264.064 0-478.912 214.848-478.912 478.912s214.848 478.912 478.912 478.912 478.912-214.848 478.912-478.912-214.848-478.912-478.912-478.912zM699.232 623.84c-49.216 52.416-115.68 81.248-187.232 81.248-33.6 0-66.4-6.464-97.504-19.264-88.256-36.16-148.896-117.504-158.304-212.192-0.8-8.448-1.28-16.96-1.28-25.632 0-77.696 34.624-150.4 95.072-199.52 45.664-37.12 103.232-57.568 162.016-57.568 37.088 0 73.152 7.936 107.264 23.616 69.632 32.064 120.96 92.832 140.832 166.752 0 0 0 0.032 0 0.032 5.952 22.4 8.992 44.832 8.992 66.688 0 65.472-24.8 127.904-69.856 175.84zM730.752 406.24c-5.664 1.216-11.168 1.76-16.8 2.752-7.456 1.312-14.912 2.688-22.272 3.648-8.736 1.12-17.28 1.696-25.856 2.272-6.912 0.448-13.824 1.056-20.608 1.152-2.112 0.032-4.352 0.352-6.464 0.352-11.264 0-22.432-0.544-33.536-1.504-1.44-0.128-2.848-0.416-4.288-0.544-8.96-0.896-17.888-1.92-26.656-3.456-1.44 3.744-3.072 7.264-4.544 10.976-5.952 15.072-12.096 29.92-18.432 44.544-1.568 3.584-2.944 7.36-4.512 10.912 3.36 1.344 6.368 2.848 9.632 4.256 3.328 1.44 6.656 2.848 9.856 4.352 7.104 3.328 13.856 6.784 20.384 10.368 2.080 1.152 4.288 2.208 6.304 3.36 8.32 4.8 16.16 9.824 23.552 14.976 1.76 1.248 3.36 2.528 5.056 3.776 5.568 4.064 10.912 8.16 15.936 12.32 2.176 1.824 4.224 3.616 6.304 5.44 4.384 3.84 8.544 7.68 12.48 11.52 1.792 1.728 3.584 3.456 5.28 5.216 4.48 4.576 8.64 9.152 12.576 13.696 0.768 0.896 1.664 1.792 2.4 2.688 4.192 4.992 8.128 9.92 11.712 14.752 30.208-38.944 46.656-86.496 46.656-136.064 0-13.664-1.408-27.648-4.16-41.76zM512 670.912c57.472 0 111.168-21.504 152.704-60.864-0.448-0.672-0.832-1.28-1.312-1.92-1.216-1.696-2.56-3.424-3.84-5.12-2.336-3.104-4.8-6.24-7.424-9.44-1.568-1.888-3.2-3.808-4.864-5.696-2.752-3.136-5.664-6.304-8.704-9.472-1.824-1.92-3.68-3.84-5.632-5.76-3.424-3.36-7.136-6.72-10.912-10.048-1.888-1.664-3.648-3.328-5.632-4.992-5.888-4.928-12.096-9.792-18.816-14.496-0.416-0.288-0.928-0.576-1.376-0.896-6.304-4.384-13.024-8.64-20.096-12.736-2.592-1.504-5.44-2.912-8.16-4.384-5.184-2.816-10.496-5.568-16.064-8.16-3.424-1.6-7.040-3.136-10.624-4.64-2.88-1.216-5.984-2.336-8.96-3.52-0.8 1.696-1.632 3.168-2.432 4.864-6.688 13.92-13.376 27.424-20 40.096-0.512 0.992-1.024 1.888-1.536 2.88-6.336 12.096-12.544 23.456-18.688 34.368-1.408 2.496-2.784 4.992-4.192 7.424-6.176 10.816-12.16 21.024-17.92 30.56-1.312 2.176-2.528 4.128-3.808 6.208-5.184 8.448-10.176 16.384-14.88 23.68-0.48 0.736-1.056 1.696-1.536 2.432 20.96 6.368 42.656 9.632 64.704 9.632zM414.752 648.512c0.192-0.288 0.384-0.576 0.576-0.864 5.056-7.712 10.56-16.384 16.288-25.6 1.216-1.952 2.464-3.968 3.68-5.984 5.92-9.632 12.032-19.872 18.4-31.008 0.704-1.216 1.408-2.528 2.112-3.744 5.984-10.496 12.128-21.728 18.368-33.44 1.184-2.24 2.368-4.416 3.584-6.72 6.624-12.608 13.312-25.952 20.032-39.872 0.48-0.992 0.96-2.016 1.44-3.008-10.624-2.976-21.056-6.208-32.384-8.352-1.728-0.32-3.52-0.544-5.248-0.864-34.368-6.080-71.872-8.256-112-6.72-3.104 0.128-6.112 0.128-9.28 0.288-15.424 0.8-31.552 2.656-47.744 4.576 12.48 70.24 57.76 130.112 122.176 161.312zM289.088 448c0 1.536 0.032 3.104 0.064 4.64 4.544-0.544 8.768-0.576 13.28-1.024 12.544-1.28 24.864-2.272 36.992-2.912 7.2-0.384 14.336-0.672 21.376-0.8 4.32-0.096 8.928-0.512 13.184-0.512 0 0 0 0 0.032 0 9.184 0 18.016 0.544 26.912 0.96 3.744 0.16 7.584 0.16 11.264 0.384 16.544 1.088 32.608 2.912 48.16 5.408 4.032 0.64 7.84 1.536 11.776 2.272 11.936 2.24 23.52 4.896 34.752 8 2.336 0.64 4.896 0.96 7.168 1.664 1.632-3.616 3.2-7.296 4.8-10.976 5.984-13.696 11.808-27.616 17.408-41.728 1.344-3.392 2.688-6.816 4.032-10.24-3.456-0.992-6.656-2.24-10.048-3.328-4.416-1.376-8.8-2.784-13.056-4.32-7.008-2.496-13.728-5.248-20.384-8.096-3.616-1.568-7.328-3.008-10.848-4.672-7.968-3.744-15.616-7.776-23.040-11.968-1.792-0.992-3.712-1.92-5.472-2.944-9.12-5.312-17.76-10.944-26.016-16.736-2.304-1.6-4.384-3.296-6.624-4.928-5.824-4.288-11.552-8.576-16.928-12.992-2.72-2.24-5.248-4.48-7.872-6.72-4.576-3.936-8.992-7.872-13.248-11.84-2.56-2.432-5.056-4.8-7.488-7.232-3.872-3.84-7.584-7.616-11.136-11.424-2.272-2.432-4.576-4.832-6.72-7.232-0.8-0.896-1.728-1.824-2.528-2.688-44.512 42.080-69.792 100.224-69.792 161.984zM385.664 264.416c0.576 0.64 1.024 1.216 1.6 1.856 1.92 2.144 4.032 4.288 6.048 6.464 3.264 3.488 6.656 6.976 10.208 10.464 2.272 2.24 4.64 4.48 7.040 6.72 3.712 3.488 7.616 6.976 11.616 10.432 2.56 2.208 5.12 4.416 7.776 6.592 4.416 3.616 9.088 7.136 13.792 10.624 2.592 1.92 5.088 3.872 7.744 5.728 6.4 4.48 13.12 8.768 20.032 12.928 1.28 0.768 2.432 1.6 3.744 2.368 8.256 4.8 16.928 9.312 25.952 13.536 2.752 1.28 5.696 2.368 8.512 3.584 6.496 2.816 13.088 5.536 19.968 7.968 3.648 1.28 7.424 2.4 11.2 3.584 3.712 1.152 7.616 2.144 11.456 3.2 7.2-20.064 14.24-40.256 20.544-60.928 0.288-0.928 0.608-1.792 0.896-2.72 6.624-21.952 12.384-44.32 17.92-66.784-68.416-26.464-146.624-16.768-206.048 24.384zM623.552 255.264c-5.056 20.096-10.624 40.032-16.544 59.744-0.224 0.768-0.416 1.568-0.64 2.336-6.176 20.384-12.768 40.48-19.776 60.256 4.64 0.736 9.248 1.6 13.952 2.144 3.904 0.448 7.808 0.96 11.744 1.248 11.424 0.864 22.976 1.216 34.752 0.96 1.312-0.032 2.592 0.096 3.904 0.032 13.216-0.448 26.624-1.728 40.224-3.584 3.68-0.512 7.424-1.28 11.136-1.888 6.336-1.056 12.768-2.464 19.168-3.808-17.728-49.6-52.288-91.072-97.92-117.44z" />
<glyph unicode="&#xe93a;" glyph-name="dropper" d="M27.584-36.416c18.4-18.432 42.624-27.616 66.816-27.616s48.416 9.216 66.816 27.616l30.688 30.656c62.464-15.424 128.288 2.592 173.792 48.128l269.632 269.6c6.24 6.24 6.24 16.384 0 22.624s-16.384 6.24-22.624 0l-269.632-269.6c-39.456-39.424-97.472-53.856-151.296-37.536-5.664 1.696-11.776 0.16-15.936-4l-37.248-37.248c-24.384-24.384-64-24.384-88.384 0-11.744 11.744-18.208 27.424-18.208 44.192s6.464 32.448 18.208 44.192l37.216 37.248c4.192 4.16 5.728 10.304 4 15.936-16.288 53.888-1.888 111.84 37.568 151.296l269.632 269.632c6.24 6.24 6.24 16.384 0 22.624s-16.384 6.24-22.624 0l-269.632-269.632c-45.536-45.504-63.52-111.328-48.128-173.824l-30.656-30.656c-36.832-36.832-36.832-96.8 0-133.632zM959.616 895.616c-86.016 86.016-226.048 85.984-312.032 0l-153.184-153.184-4.512 4.512c-30.016 30.016-82.368 30.016-112.384 0-30.976-30.976-30.976-81.376 0-112.384l321.056-321.056c15.008-15.008 34.976-23.296 56.192-23.296s41.184 8.256 56.192 23.296c30.976 30.976 30.976 81.376 0 112.384l-4.512 4.512 153.216 153.216c86.016 86.016 86.016 225.984-0.032 312zM788.32 336.128c-17.952-17.952-49.184-17.952-67.136 0l-321.056 321.056c-18.496 18.496-18.496 48.64 0 67.136 8.96 8.96 20.864 13.92 33.568 13.92s24.608-4.928 33.568-13.92l321.056-321.056c18.496-18.528 18.496-48.64 0-67.136zM936.992 606.208l-153.216-153.216-266.784 266.784 153.216 153.216c73.504 73.472 193.152 73.568 266.784 0 73.568-73.536 73.568-193.216 0-266.784z" />
<glyph unicode="&#xe93b;" glyph-name="edit" d="M48-64h928c26.464 0 48 21.536 48 48v928c0 26.464-21.536 48-48 48h-928c-26.464 0-48-21.536-48-48v-928c0-26.464 21.536-48 48-48zM32 912c0 8.832 7.2 16 16 16h928c8.8 0 16-7.168 16-16v-928c0-8.832-7.2-16-16-16h-928c-8.8 0-16 7.168-16 16v928zM128 48.672c1.536 0 3.072 0.224 4.576 0.672l320 95.328c2.592 0.768 4.928 2.176 6.816 4.064l322.88 326.56c0.736 0.768 1.12 1.696 1.664 2.56l117.056 117.056c19.424 19.424 19.424 51.040 0 70.496l-167.552 167.488c-19.424 19.424-51.040 19.456-70.464 0l-119.648-119.648c-0.768-0.768-1.152-1.728-1.728-2.592l-323.776-323.808c-1.792-1.792-3.136-3.968-3.904-6.368l-101.12-310.88c-1.856-5.664-0.384-11.872 3.744-16.128 3.040-3.104 7.2-4.8 11.456-4.8zM555.488 679.328l33.28-33.28-272.736-274.016-55.264 12.544 294.72 294.752zM336 346.72l275.424 276.672 77.888-77.888-279.84-273.504h-73.472v74.72zM748.32 486.496l-295.872-299.264-18.432 63.968 277.888 271.648 36.416-36.352zM239.776 356.512l64.224-14.592v-85.92c0-8.832 7.168-16 16-16h83.968l20.256-70.4-271.584-80.896 87.136 267.808zM685.6 810.272c6.976 6.944 18.304 6.912 25.216 0l167.52-167.52c6.976-6.944 6.976-18.272 0-25.248l-107.904-107.904-192.736 192.736 107.904 107.936z" />
<glyph unicode="&#xe93c;" glyph-name="envelope" horiz-adv-x="1216" d="M641.92 946.784c-18.56 17.056-49.248 17.056-67.808 0l-566.016-341.472c-4.8-2.912-7.744-8.096-7.744-13.696v-605.504c0-27.616 22.592-50.112 50.368-50.112h1114.56c27.776 0 50.368 22.496 50.368 50.112v605.504c0 5.6-2.944 10.784-7.744 13.696l-565.984 341.472zM592.128 920.32c1.12 0.672 2.112 1.472 3.040 2.368 3.456 3.424 8 5.312 12.832 5.312s9.376-1.888 12.8-5.312c0.928-0.896 1.952-1.696 3.040-2.368l551.264-332.608-399.296-237.952c-7.584-4.544-10.080-14.336-5.568-21.952 3.008-5.024 8.32-7.808 13.76-7.808 2.784 0 5.6 0.704 8.16 2.24l391.84 233.28v-568.224l-541.92 360.512c-17.216 13.728-51.008 13.728-67.072 0.8l-543.008-361.152v568.064l391.808-233.28c2.56-1.536 5.408-2.24 8.192-2.24 5.44 0 10.752 2.784 13.76 7.808 4.512 7.584 2.016 17.408-5.568 21.952l-399.328 237.952 551.264 332.608zM1154.88-32h-1094.016l532.992 354.752c5.536 4.416 22.784 4.384 29.408-0.8l531.616-353.952zM208 544h800c8.832 0 16 7.168 16 16s-7.168 16-16 16h-800c-8.832 0-16-7.168-16-16s7.168-16 16-16z" />
<glyph unicode="&#xe93d;" glyph-name="envelope1" horiz-adv-x="1504" d="M1456 960h-1408c-26.496 0-48-21.504-48-48v-928c0-26.496 21.504-48 48-48h1408c26.496 0 48 21.504 48 48v928c0 26.496-21.504 48-48 48zM1456-32h-1392c-17.6 0-32 14.4-32 32v815.296l417.408-388.224-220.896-225.248c-6.24-6.24-4.256-16.416 1.984-22.624 3.136-3.136 8.224-4.672 12.32-4.672s8.672 1.568 11.808 4.672l225.76 225.856 187.232-177.408c32.608-30.976 74.496-46.432 116.384-46.432 41.856 0 83.712 15.456 116.32 46.432l206.368 195.84 237.248-237.344c3.136-3.136 7.232-4.672 11.328-4.672s8.192 1.568 11.328 4.672c6.24 6.24 6.24 16.384 0 22.624l-237.504 243.648 342.912 332.928v-801.344c0-8.832-7.168-16-16-16zM1472 912v-82.88l-601.696-578.304c-52.896-50.144-132.736-39.264-185.568 10.912l-652.736 595.296v38.976c0 17.6 14.4 32 32 32h1392c8.8 0 16-7.2 16-16z" />
<glyph unicode="&#xe93e;" glyph-name="expand" d="M1024-16v928c0 26.464-21.536 48-48 48h-928c-26.464 0-48-21.536-48-48v-288c0-8.832 7.168-16 16-16s16 7.168 16 16v288c0 8.832 7.2 16 16 16h928c8.8 0 16-7.168 16-16v-928c0-8.832-7.2-16-16-16h-288c-8.832 0-16-7.168-16-16s7.168-16 16-16h288c26.464 0 48 21.536 48 48zM48 544c-26.464 0-48-21.536-48-48v-512c0-26.464 21.536-48 48-48h512c26.464 0 48 21.536 48 48v537.376l224 224v-217.376c0-8.832 7.168-16 16-16s16 7.168 16 16v256c0 8.832-7.168 16-16 16h-256c-8.832 0-16-7.168-16-16s7.168-16 16-16h217.344l-224-224h-537.344zM576-16c0-8.832-7.2-16-16-16h-512c-8.8 0-16 7.168-16 16v512c0 8.832 7.2 16 16 16h528v-528z" />
<glyph unicode="&#xe93f;" glyph-name="facebook" d="M512 961.088c-282.912 0-513.12-230.144-513.12-513.088s230.208-513.088 513.12-513.088 513.12 230.144 513.12 513.088-230.208 513.088-513.12 513.088zM512-30.912c-264.064 0-478.88 214.848-478.88 478.912s214.816 478.912 478.88 478.912 478.88-214.848 478.88-478.912-214.816-478.912-478.88-478.912zM624 736h-85.376c-108.736 1.088-122.624-66.208-122.624-139.040v-52.96h-48c-9.44 1.088-17.12-6.56-16-16v-96c-1.12-9.44 6.56-17.088 16-16h48v-240c-0.992-9.44 6.656-17.088 16.096-16h97.76c9.44-1.088 17.088 6.56 14.080 16l0.064 240h80c9.44-1.088 17.12 6.56 16 16v96c1.12 9.44-6.56 17.088-16 16h-80.096l0.096 48c3.104 20.448 3.104 17.12 22.080 16h57.248c4.448 0.992 9.184 0.448 12.512 3.68s5.248 7.648 4.128 12.32v96c1.152 9.44-6.528 17.088-15.968 16zM606.88 641.792l-40.128 1.536c-49.696 0-53.856-26.976-53.856-54.592l-0.128-60.672c0-4.544 1.792-8.896 4.992-12.128 3.2-3.2 7.552-4.992 12.096-4.992h78.144v-61.824h-78.080c-9.44 0-17.088-7.648-17.12-17.088l-0.032-240.032h-64.768v240c0 9.44-6.432 17.088-15.904 17.088h-48.096v61.824h48.096c4.544 0 8.896 1.792 12.096 4.992 3.2 3.232 3.776 7.584 3.776 12.128v68.96c0 71.744 14.496 105.92 90.624 105.92h68.256v-61.12z" />
<glyph unicode="&#xe940;" glyph-name="file-cabinet" d="M399.008 960c-25.92 0-47.008-21.088-47.008-47.008v-929.984c0-25.92 21.088-47.008 47.008-47.008h225.984c25.92 0 47.008 21.088 47.008 47.008v929.984c0 25.92-21.088 47.008-47.008 47.008h-225.984zM640-16.992c0-8.288-6.72-15.008-15.008-15.008h-225.984c-8.288 0-15.008 6.72-15.008 15.008v464.992h256v-464.992zM640 480h-256v288h256v-288zM640 912.992v-112.992h-256v112.992c0 8.288 6.72 15.008 15.008 15.008h225.984c8.288 0 15.008-6.72 15.008-15.008zM516.064 64c35.296 0 64 28.704 64 64s-28.704 64-64 64-64-28.704-64-64 28.704-64 64-64zM516.064 160c17.664 0 32-14.368 32-32s-14.336-32-32-32-32 14.368-32 32 14.336 32 32 32zM768-48c0-8.832 7.168-16 16-16h193.12c25.856 0 46.88 21.536 46.88 48v928c0 26.464-21.024 48-46.88 48h-193.12c-8.832 0-16-7.168-16-16s7.168-16 16-16h193.12c8.192 0 14.88-7.168 14.88-16v-112h-112c-8.832 0-16-7.168-16-16s7.168-16 16-16h112v-288h-112c-8.832 0-16-7.168-16-16s7.168-16 16-16h112v-464c0-8.832-6.688-16-14.88-16h-193.12c-8.832 0-16-7.168-16-16zM928 128c0 35.296-28.704 64-64 64s-64-28.704-64-64 28.704-64 64-64 64 28.704 64 64zM832 128c0 17.632 14.336 32 32 32s32-14.368 32-32-14.336-32-32-32-32 14.368-32 32zM46.88-64h193.12c8.832 0 16 7.168 16 16s-7.168 16-16 16h-193.12c-8.192 0-14.88 7.168-14.88 16v464h112c8.832 0 16 7.168 16 16s-7.168 16-16 16h-112v288h112c8.832 0 16 7.168 16 16s-7.168 16-16 16h-112v112c0 8.832 6.688 16 14.88 16h193.12c8.832 0 16 7.168 16 16s-7.168 16-16 16h-193.12c-25.856 0-46.88-21.536-46.88-48v-928c0-26.464 21.024-48 46.88-48zM96 128c0-35.296 28.704-64 64-64s64 28.704 64 64-28.704 64-64 64-64-28.704-64-64zM192 128c0-17.632-14.336-32-32-32s-32 14.368-32 32 14.336 32 32 32 32-14.368 32-32z" />
<glyph unicode="&#xe941;" glyph-name="finger-index" horiz-adv-x="768" d="M675.904 464.544l-259.904 102.496v279.456c0 62.592-50.24 113.504-112 113.504s-112-50.912-112-113.504v-638.496c0-8.832 7.168-16 16-16s16 7.168 16 16v638.496c0 44.928 35.872 81.504 80 81.504s80-36.576 80-81.504v-445.856c0-8.832 7.168-16 16-16s16 7.168 16 16v131.712l248.16-97.6c48.992-19.328 78.048-68 70.72-118.336l-36.832-252.608c-7.968-54.624-57.28-95.808-114.688-95.808h-398.24c-15.744 0-30.72 7.2-40.096 19.264l-103.232 132.896c-6.4 8.288-9.792 18.080-9.792 28.384v171.552c0 12.608 5.12 24.512 14.432 33.472l48.768 47.104c6.336 6.144 6.528 16.288 0.384 22.624-6.080 6.336-16.224 6.528-22.624 0.416l-48.736-47.104c-15.424-14.848-24.224-35.456-24.224-56.512v-171.552c0-17.216 5.888-34.24 16.576-48l103.2-132.896c15.36-19.808 39.776-31.648 65.344-31.648h398.24c73.184 0 136.096 52.96 146.336 123.2l36.832 252.608c9.504 65.12-27.744 127.904-90.624 152.736z" />
</font>
</defs>
</svg>
